<?xml version="1.0" standalone="no"?>
<!DOCTYPE svg PUBLIC "-//W3C//DTD SVG 1.1//EN" "http://www.w3.org/Graphics/SVG/1.1/DTD/svg11.dtd" >
<svg xmlns="http://www.w3.org/2000/svg">
<metadata>
This is a custom SVG webfont generated by Font Squirrel.
Copyright   :  thebend aka Dimitri Castrique 2007 wwwthebendbe
Designer    : Dimitri Castrique
Foundry     : Dimitri Castrique
Foundry URL : FREE donationware
</metadata>
<defs>
<font id="webfontO91x60TJ" horiz-adv-x="929" >
<font-face units-per-em="2048" ascent="1638" descent="-410" />
<missing-glyph horiz-adv-x="464" />
<glyph unicode=" "  horiz-adv-x="464" />
<glyph unicode="&#x09;" horiz-adv-x="464" />
<glyph unicode="&#xa0;" horiz-adv-x="464" />
<glyph unicode="!" horiz-adv-x="415" d="M113 424q-2 41 -3 89t-6 108q-4 80 -8 171t-7 180l-6 170q-3 81 -5 144q4 35 64.5 47.5t164.5 12.5q10 -29 17.5 -60t7.5 -69q0 -47 -3 -114t-7 -141l-9 -153q-4 -78 -8 -145q-4 -49 -6 -91.5t-4 -72.5q-6 -49 -54 -67.5t-110 -18.5zM203 231q72 0 93 -29.5t19 -88.5 q-2 -57 -26.5 -94t-98.5 -37q-63 0 -88.5 30.5t-25.5 96.5q0 122 127 122z" />
<glyph unicode="&#x22;" horiz-adv-x="600" d="M211 1055q-4 -6 -21.5 -11.5t-39 -9.5t-42 -6t-32.5 -2q0 23 -3 76t-7 112q-2 37 -5.5 73t-5.5 69t-3 58.5t-1 37.5q25 14 63 24.5t72 10.5q23 0 35 -4q20 -10 29.5 -33t9.5 -53v-17q-2 -43 -7 -93t-11 -97t-14.5 -83t-14.5 -50zM502 1055q-4 -6 -21.5 -11.5t-39 -9.5 t-42 -6t-32.5 -2q0 23 -3.5 76l-7.5 112q-2 37 -5 73t-5 69t-3 58.5t-1 37.5q23 14 61.5 24.5t73.5 10.5q23 0 35 -4q20 -10 29.5 -33t9.5 -53v-17q-2 -43 -7 -93t-11.5 -97t-14.5 -83t-14 -50z" />
<glyph unicode="#" horiz-adv-x="909" d="M51 410q0 39 2 49q-4 4 -7 12t-3 12t12 30l21 42h117l8 56l8 57l7 54l7 54h-135v43q-6 14 -6 27q0 2 4 13l9 24l10 23q5 11 10 16h127q2 10 2 22v23q2 33 6 62.5t20.5 53t52 38t101.5 14.5q16 -16 16 -33q0 -31 -5 -63.5t-13 -67.5l-10 -49h147q2 10 2 19v20q0 31 4 61.5 t20.5 56t53.5 41t102 15.5q10 -10 12.5 -16.5t2.5 -14.5q0 -29 -5.5 -61.5t-11.5 -61.5q-4 -16 -5 -29.5t-5 -29.5h115v-48q8 -14 8 -28q0 -2 -4 -11l-9 -21q-5 -11 -11.5 -21.5l-10.5 -16.5h-108l-8.5 -56.5l-8.5 -55.5q-4 -29 -7 -54l-7 -55h133v-45q8 -10 8 -27l-4 -10 q-4 -10 -8 -23.5t-10 -24.5t-9 -15h-131q-2 -10 -2 -28v-28q-2 -35 -6 -68.5t-20.5 -60t-52 -43t-99.5 -16.5q-18 12 -18 33q0 37 7 77.5t15 81.5q4 16 5 25.5t6 26.5h-152q-2 -8 -2 -21.5t-2 -23.5q-4 -31 -9 -66t-15.5 -64.5t-26 -48t-37.5 -18.5q-16 0 -38 4t-46 10 q-4 0 -14.5 1t-14.5 1l20 112l19 114h-123zM389 776q-4 -29 -7 -56.5t-7 -55.5q-4 -29 -6 -53.5t-7 -55.5h150l11 111q5 51 16 110h-150z" />
<glyph unicode="$" d="M684 573q66 -55 96.5 -117.5t30.5 -140.5q0 -117 -76 -201.5t-205 -117.5q-4 -41 -9 -81t-9 -81q0 -47 -46 -60.5t-144 -13.5l20 226q-78 6 -134 24.5t-81 38.5q-14 12 -23.5 23.5t-9.5 21.5q0 12 4 30.5t11.5 39t17.5 40t20 34.5q49 -35 114 -57.5t134 -22.5 q84 0 134.5 33.5t50.5 111.5q0 53 -29 99.5t-102 105.5l-30 30q-13 13 -34 29q-6 6 -18.5 17.5t-20.5 17.5q-4 4 -3 2t-3 2h2l-76 63.5t-61 59.5q-53 59 -74.5 109.5t-21.5 97.5q0 45 16 88t50 81t84 66.5t118 42.5q4 41 9 83t9 83q0 47 49.5 60.5t141.5 13.5l-21 -235 q96 -8 146.5 -33t64.5 -45q0 -20 -11 -50t-28 -55q-12 -8 -20 -9t-19 -1q-10 0 -20 2t-21 6q-31 12 -68.5 20.5t-78.5 8.5q-80 0 -126 -33t-46 -98v-6q6 -33 23.5 -59.5t44.5 -55.5q41 -39 77 -70l76 -63l19 -15l16 -14l53 -42q25 -20 37 -34z" />
<glyph unicode="%" horiz-adv-x="1454" d="M766 338q0 80 18.5 146.5t57.5 115.5t95 77t134 28q63 0 116.5 -18.5t90.5 -60.5t57.5 -112t20.5 -172q0 -166 -74 -265.5t-221 -99.5q-66 0 -120 16.5t-93 57.5t-60.5 111t-21.5 176zM78 983q0 78 18.5 144.5t56 115.5t95 77t133.5 28q63 0 116.5 -17.5t91.5 -59.5 t58.5 -111.5t20.5 -172.5q0 -166 -74 -266t-223 -100q-66 0 -120 17t-93 59t-59.5 112t-20.5 174zM332 -59q-2 0 -16.5 7t-31 18t-30.5 23.5t-14 24.5l81 141l125 214l154 257l162 268l149 248l119 195q27 37 45 37t47 -16q23 -14 37.5 -27.5t18.5 -34.5l-72 -120l-115 -196 l-143 -242l-158 -262l-156 -257l-139 -225h2q-33 -53 -59 -53h-6zM950 336q0 -119 28 -173t83 -54q47 0 78.5 55t31.5 176q0 123 -27.5 175t-78.5 52q-53 0 -84 -57t-31 -174zM266 981q0 -119 28 -172t79 -53t81.5 55t30.5 176q0 123 -27.5 175t-80.5 52q-49 0 -80 -57 t-31 -176z" />
<glyph unicode="&#x26;" horiz-adv-x="1208" d="M872 891q12 4 58.5 9t95.5 9h14h38q19 0 33.5 -6t24 -20.5t9.5 -44.5q0 -23 -19.5 -38.5t-70.5 -39.5h-33v-23q0 -25 -2 -62.5t-14.5 -92t-39 -123t-75.5 -152.5l29 -27l26 -26l115 -109q41 -39 61 -51q-6 -33 -20.5 -53.5t-33.5 -32.5t-39.5 -17t-39.5 -5q-16 0 -27.5 2 t-22.5 9t-25 19l-33 33q-18 16 -37 36.5t-58 57.5q-78 -88 -167 -122.5t-187 -34.5q-96 0 -170 27.5t-123 75.5t-73.5 114.5t-24.5 144.5q0 61 20.5 115.5t53 101.5t73.5 86t84 70q-63 86 -99 173t-36 173q0 68 25.5 123t71 93t109 58.5t138.5 20.5q104 0 168 -25.5 t64 -66.5q0 -12 -15.5 -53t-38.5 -72q-47 35 -90 49t-84 14q-63 0 -107 -35.5t-44 -115.5q0 -49 32.5 -113.5t85 -137.5t115.5 -149l125 -145q20 -23 29.5 -31t28.5 -30q66 139 88 227t22 156v21q0 7 -4 24zM434 152q61 0 115.5 27.5t109.5 92.5q-78 78 -155.5 165 t-130.5 159q-61 -49 -95 -109.5t-34 -136.5q0 -82 49 -140t141 -58z" />
<glyph unicode="'" horiz-adv-x="307" d="M209 1055q-4 -6 -21.5 -11.5t-39 -9.5t-42 -6t-32.5 -2q0 23 -3 76t-8 112q-2 37 -5 73t-5 69t-3 58.5t-1 37.5q25 14 63 24.5t72 10.5q23 0 35 -4q20 -10 29.5 -33t9.5 -53v-17q-2 -43 -7 -93t-11.5 -97t-14.5 -83t-14 -50z" />
<glyph unicode="(" horiz-adv-x="659" d="M309 600q0 -147 21.5 -277t59.5 -240t88 -196t108 -143q-12 -55 -42 -88t-73 -33q-37 18 -98.5 88t-119.5 191t-101 290.5t-43 387.5q0 203 38.5 365.5t95 282.5t121 199.5t117.5 116.5q47 -10 73 -40.5t32 -78.5q-123 -141 -200 -348t-77 -477z" />
<glyph unicode=")" horiz-adv-x="659" d="M330 602q0 270 -75 484t-200 346q12 55 43 82.5t72 27.5q37 -18 97.5 -85.5t118.5 -183.5t101 -280t43 -375q0 -205 -37.5 -372.5t-95 -293.5t-122 -210t-115.5 -121q-49 8 -75 45t-30 84q57 66 107.5 153t87.5 192.5t58.5 230.5t21.5 266v10z" />
<glyph unicode="*" horiz-adv-x="921" d="M381 938q23 20 42 20t54 -40q6 10 20.5 18t43.5 22l204 -213q14 -18 7 -35.5t-28.5 -34t-50 -27.5t-52.5 -17l-140 250q-6 12 -6 22l-129 -241q-14 -25 -35.5 -26t-45 12.5t-44 36t-35.5 44.5l195 207v2zM416 1055q6 -6 18 -15l-37 285q-2 27 17.5 36t52.5 9 q57 0 106 -24l-32 -277q-6 -27 -23.5 -37t-81.5 4q10 -10 8 -26.5t-20 -46.5l-297 55q-23 4 -28 22.5t2.5 43t21.5 50t31 44.5l260 -121zM780 1155q25 12 42.5 1t28.5 -33.5t14 -53.5t-1 -55l-284 -53q-29 -4 -45.5 6t-20.5 61z" />
<glyph unicode="+" horiz-adv-x="1021" d="M600 205q2 -35 -14.5 -53.5t-42 -26.5t-58 -9t-65.5 -1v356h-336q0 80 13.5 118t54.5 38h268v157q0 35 -1 75t-3 71q18 20 52 24t93 7q25 -12 32 -30t7 -52v-252h336q0 -80 -11.5 -118t-58.5 -38h-266v-266z" />
<glyph unicode="," horiz-adv-x="395" d="M195 240q76 0 101.5 -28t20.5 -101v-15q0 -8 -2 -14q-4 -43 -22.5 -88t-43 -84t-52 -71t-52.5 -48h2q-14 -10 -30.5 -13t-32.5 -3q-45 0 -84 26q4 4 8 14.5t8 14.5q35 53 58.5 98t27.5 105q-14 6 -14 16q-2 4 -2 8t-12 33q-4 16 -10.5 33.5t-6.5 32.5q16 35 53.5 59.5 t84.5 24.5z" />
<glyph unicode="-" horiz-adv-x="598" d="M453 463q-35 -6 -76 -11l-86 -11q-45 -5 -89 -8t-81 -3q-16 0 -30.5 2t-35.5 10q8 78 22.5 116t47.5 40q84 8 182.5 19.5t169.5 21.5q14 -2 30.5 -8t33.5 -15q-4 -61 -24.5 -104t-65.5 -49h2z" />
<glyph unicode="." horiz-adv-x="395" d="M57 111q0 127 140 127q80 0 103.5 -31t21.5 -92q-2 -59 -29 -97t-111 -38q-72 0 -98.5 32.5t-26.5 98.5z" />
<glyph unicode="/" horiz-adv-x="737" d="M684 1425l-112 -378l-109 -381l-85 -295l-87 -295q-14 -51 -33.5 -97.5t-44.5 -68.5q-10 -8 -22.5 -13.5t-32 -7.5t-50 -3t-79.5 -1l220 746l220 747q8 25 19.5 38.5t52.5 17.5q51 6 123 4z" />
<glyph unicode="0" d="M47 606q0 217 53.5 353.5t139.5 201.5q43 35 100 53.5t121 18.5q123 0 200.5 -51.5t121.5 -135t61.5 -191t17.5 -222.5q0 -330 -100 -496t-313 -166q-94 0 -169 36t-126.5 113t-79 197.5t-27.5 288.5zM270 600q0 -133 13.5 -223t38 -144.5t58.5 -78t75 -23.5 q39 0 72.5 23.5t59 81t40 155.5t14.5 250q0 123 -13.5 206t-37 134t-56 72.5t-71.5 21.5q-84 0 -138.5 -109.5t-54.5 -365.5z" />
<glyph unicode="1" horiz-adv-x="804" d="M631 1208q-2 -84 -3 -211t-3 -269t-3 -288.5t-1 -271.5q14 -4 26 -9t29 -9q29 -10 53.5 -20.5t24.5 -20.5q0 -53 -4.5 -73t-26.5 -30q-35 -6 -57 -6q-6 0 -11.5 -1t-9.5 -1q-45 0 -97 -1l-105 -2q-52 -1 -102 -1h-89v51q0 14 -1 27.5t-1 27.5q0 23 30.5 34t71.5 24 q10 4 21.5 7t23.5 7q4 184 6.5 399t6.5 455l-68 -18l-78 -19.5l-69.5 -17.5t-44.5 -10q-10 20 -18.5 40.5t-10.5 38.5q10 16 24.5 34t32.5 36l110 38l111 37l98.5 30.5t69.5 19.5q16 -4 34 -11.5t30 -15.5z" />
<glyph unicode="2" d="M133 967q-16 0 -27.5 15t-17.5 34.5t-9 39t-3 27.5q18 33 55 59.5t88 47t112.5 32t127.5 11.5q94 0 159.5 -24.5t104.5 -67.5t56.5 -101.5t17.5 -124.5q0 -14 -1 -27.5t-3 -25.5q-10 -72 -46 -148.5t-90 -150.5q-29 -41 -62 -82l-75 -90l-82 -97l-98 -126q63 -2 127 -2 h135q43 0 86 2t78 4q23 2 50 2h38q-6 -72 -27.5 -117t-50.5 -49q-37 -4 -92 -7t-127 -3q-135 0 -260 1t-223 7q-14 35 -17 53q4 29 13.5 52.5t31.5 58.5l103 130l94 114l104 132q49 65 86 124t57.5 114.5t20.5 106.5q0 168 -155 168q-72 0 -140.5 -26.5t-105.5 -51.5h2z" />
<glyph unicode="3" d="M721 799q-23 -35 -59.5 -73t-92.5 -77q125 -29 195 -108.5t70 -206.5q0 -113 -39 -200t-108 -145.5t-162 -89t-199 -30.5q-86 0 -139.5 15.5t-75.5 35.5h2q-23 20 -30 43t-7 45q0 35 16 90q47 -29 105.5 -46t117.5 -17q70 0 125.5 22.5t92 62.5t56 94t17.5 116q0 4 -1 9 t-1 9q0 16 -2 23q-10 86 -83 123.5t-181 37.5q-16 0 -41 -1t-51 -5q0 23 -2 27q-4 12 -4 22q4 23 11 43.5t17 36.5q51 20 99.5 47t86.5 61t60.5 74t22.5 87q0 53 -30 95t-108 42q-66 0 -123 -19.5t-102 -52.5q-14 -10 -31 -10q-18 0 -32 20q-10 20 -14.5 44t-4.5 42v11 q23 53 119 95t233 42q96 0 159 -25.5t99.5 -65.5t51 -86t14.5 -89q0 -45 -12 -89t-35 -79z" />
<glyph unicode="4" d="M502 225q0 18 1 33.5t1 36.5q-115 0 -229.5 4t-186.5 12q-31 29 -45 59.5t-18 59.5q16 39 47.5 102.5t71.5 136.5l86 150q46 78 92.5 147.5t88.5 125t74 84.5q27 27 66 42t74 21q25 0 44 -3t33 -7q4 0 12.5 -1t10.5 -1q0 -47 -1 -101.5t-1 -103.5v-195v-188 q0 -96 -2 -190q37 4 75 5t60 1q4 -8 5 -13.5t3 -9.5q8 -16 8 -33q-12 -33 -33.5 -59.5t-64.5 -38.5q-12 -4 -23 -4h-24h-6v-227q0 -31 -12.5 -51.5t-55.5 -28.5q-23 -4 -64.5 -5t-86.5 -1v241zM512 721q0 23 1 43t1 41v33v23q0 11 1 22.5t1 34.5q-41 -53 -80 -113 t-73.5 -121t-64.5 -120.5t-52 -110.5q111 -6 258 -7q4 55 5 116t3 116v43z" />
<glyph unicode="5" d="M748 1085q-27 -6 -76 -11t-105.5 -8t-116 -5t-108.5 -2l-24.5 -138.5t-22.5 -144.5h16q23 -2 48.5 -2t56.5 -4q23 -4 47 -7t47 -7q61 -12 115.5 -36t97.5 -61.5t71.5 -93t34.5 -131.5q0 -10 1 -19t1 -20v-37v-24q0 -14 -2 -27v2q-6 -102 -45 -184t-103.5 -138.5 t-152.5 -87t-194 -30.5q-111 0 -165 23.5t-65 41.5q-16 55 -16 99q0 10 1 20t9 37q41 -29 96.5 -43t114.5 -14q66 0 120 23.5t94 66.5t62.5 102.5t22.5 128.5q0 109 -47 163t-133 77q-55 16 -114.5 22.5t-104.5 10.5q-35 4 -70 5t-57 1q6 49 15 109l19 122q9 61 19 122 t21 114l12 64l10 55q55 0 139 2l172 4q88 2 169 5t130 5l-8 -119q-2 -10 -10 -18t-25 -13h3z" />
<glyph unicode="6" d="M45 481v64q0 35 4 69q10 166 53 300.5t113 222.5q51 66 108.5 109.5t115 69t112.5 36t104 10.5q59 0 107.5 -13.5t58.5 -56.5q0 -20 -3 -42.5t-9 -41.5q-135 8 -245.5 -24.5t-182.5 -128.5q-43 -57 -74 -137t-47 -191q-2 -10 -2 -17.5t-2 -17.5q-6 -45 -10 -90t-4 -92 q0 -197 59 -289t156 -92q82 0 140 76t58 223q0 111 -36.5 164t-92.5 67h2q-16 4 -28 5q-23 0 -61 -8.5t-66 -16.5v57q0 39 12 68t41 43q49 23 117 22q27 0 37 -2h-2q74 -6 127 -40.5t85.5 -87t48 -117t15.5 -133.5q0 -104 -24.5 -191.5t-74.5 -150t-128 -98.5t-185 -36 q-178 0 -285.5 122t-111.5 386z" />
<glyph unicode="7" horiz-adv-x="884" d="M123 -49l68 175l80 193l86 202l87 200l81 186l69 162q-53 -2 -131 -2h-184q-68 0 -118 8t-87 21q-8 16 -8 26q0 23 9 59t23 70q49 -14 95.5 -17t93.5 -3h557l-21 -64l-18 -63q0 -2 -1 -5t-1 -5q-18 -61 -51 -147l-72 -181l-82 -200l-84 -201l-107 -253q-48 -118 -77 -206 h-68q-37 0 -69.5 3t-54 12t-17.5 28z" />
<glyph unicode="8" d="M709 633q72 -59 109.5 -127t37.5 -160q0 -78 -26.5 -144.5t-77 -115.5t-125 -77.5t-170.5 -28.5q-115 0 -192 32.5t-124 83.5t-67.5 115.5t-20.5 128.5q0 61 18.5 112.5t49.5 94.5q55 72 170 147q-90 61 -135 113q-35 41 -51.5 89t-16.5 97q0 80 26.5 143.5t75 109.5 t116 70.5t149.5 24.5q8 0 15 -1t15 -1h29q78 -6 136.5 -32.5t96 -69.5t56 -98.5t18.5 -116.5q0 -59 -19.5 -109.5t-47.5 -87.5q-23 -29 -60 -60.5t-80 -62.5q35 -23 57.5 -41t39.5 -28h-2zM457 139q35 0 68.5 12.5t59 37t42 61.5t16.5 86q0 61 -17.5 96t-56.5 70 q-49 49 -135 100q-72 -47 -124 -110.5t-52 -141.5q0 -102 58.5 -156.5t140.5 -54.5zM297 1014q0 -45 15.5 -76t49.5 -61q20 -23 51 -43l64 -43q66 45 107 99t41 124q0 86 -48.5 127t-113.5 41q-63 0 -114.5 -41t-51.5 -127z" />
<glyph unicode="9" d="M152 8q92 -2 191 47t169 129q39 57 74 141.5t47 172.5q6 45 9 94t3 96q0 186 -43 294t-151 108q-98 0 -152.5 -79t-54.5 -210q0 -104 37.5 -160.5t93.5 -71.5h-2q12 -2 24.5 -3t22.5 -1q23 0 52.5 5t55.5 14q4 -23 4 -36v-28q0 -29 -12 -57.5t-39 -44.5 q-18 -8 -46.5 -14.5t-65.5 -6.5h-17q-4 0 -10 1t-10 1q-72 8 -126 42t-90 84t-54.5 117t-18.5 140q0 104 26.5 189.5t79 146t129 94t179.5 33.5q109 0 182.5 -32.5t118.5 -103.5t64.5 -179.5t21.5 -261.5q-2 -207 -57.5 -374t-172.5 -280q-45 -39 -94 -66.5t-98 -46 t-92 -26.5t-76 -8h-18q-49 2 -76 10t-37 25q-14 29 -18.5 58.5t-4.5 53.5q23 -4 33.5 -5t18.5 -1z" />
<glyph unicode=":" horiz-adv-x="395" d="M57 766q0 127 140 127q80 0 103.5 -32t21.5 -91t-30 -97t-108 -38q-70 0 -98.5 31.5t-28.5 99.5zM57 111q0 127 140 127q80 0 103.5 -31t21.5 -92q-2 -59 -30 -97t-108 -38q-70 0 -98.5 32.5t-28.5 98.5z" />
<glyph unicode=";" horiz-adv-x="395" d="M195 240q76 0 101.5 -28t20.5 -101v-15q0 -8 -2 -14q-4 -43 -22.5 -88t-43 -84t-52 -71t-52.5 -48h2q-14 -10 -30.5 -13t-32.5 -3q-45 0 -84 26q4 4 8 14.5t8 14.5q35 53 58.5 98t27.5 105q-10 6 -14 16q-2 4 -2 8t-12 33q-4 16 -10.5 33.5t-6.5 32.5q16 35 53.5 59.5 t84.5 24.5zM57 766q0 127 140 127q80 0 103.5 -32t21.5 -91t-30 -97t-108 -38q-72 0 -99.5 31.5t-27.5 99.5z" />
<glyph unicode="&#x3c;" horiz-adv-x="937" d="M784 1122q8 -16 13.5 -45.5t5.5 -48.5l-240 -184l-89 -69l-80 -61l-59 -45l-28 -20q20 -16 53 -40l72 -52l82 -59l84 -62l207 -151q0 -16 -7 -50t-18 -57q-8 -12 -19 -21.5t-28 -11.5q-33 -4 -61 17l-276 206l-277 205q-16 14 -27.5 29.5t-11.5 34.5q0 23 4 40t14 30 l277 208l102 78l93 71l69 53q27 22 33 26q16 12 29.5 18t29.5 2q20 -4 32.5 -15.5t20.5 -25.5z" />
<glyph unicode="=" horiz-adv-x="1021" d="M84 672q2 78 15.5 111.5t54.5 33.5h784q-2 -78 -14.5 -116.5t-55.5 -38.5h-764zM84 285q2 74 15.5 109.5t54.5 35.5h784q-2 -78 -14.5 -117t-55.5 -39h-764z" />
<glyph unicode="&#x3e;" horiz-adv-x="931" d="M143 176q-8 16 -12 46t-6 50l242 185l90 68l80 61l58 44q24 17 28 19l-41 29l-66 48l-81 59l-87 65l-225 164q0 16 7 51t17 55q20 31 52 33q37 4 59 -16h-2l278 -206l279 -206q16 -14 26.5 -28.5t10.5 -32.5q0 -51 -25 -76l-274 -207l-104 -78l-91 -70l-67 -52 q-27 -22 -31 -25q-33 -27 -61 -21q-18 4 -32 15.5t-22 25.5z" />
<glyph unicode="?" horiz-adv-x="659" d="M473 748q-96 -125 -96 -209q0 -18 3 -36t7 -34q2 -10 3 -20.5t1 -20.5q-10 -16 -37.5 -24.5t-54.5 -8.5q-35 0 -67.5 20.5t-45.5 65.5q-10 41 -10 82q0 61 27 121q16 35 38 68l44 65l16 25q35 49 64.5 98t29.5 109q0 66 -33.5 95.5t-85.5 29.5q-33 0 -70.5 -12.5 t-84.5 -41.5q-29 4 -52.5 32t-23.5 87q16 27 48 48.5t71 34.5t82 20.5t82 7.5q80 0 135 -21.5t89 -58.5t49 -87t15 -110q0 -102 -43 -177.5t-100 -147.5zM307 231q72 0 93.5 -29.5t19.5 -88.5q-2 -57 -25.5 -94t-99.5 -37q-63 0 -89 30.5t-26 96.5q0 122 127 122z" />
<glyph unicode="@" horiz-adv-x="1521" d="M1155 -94q14 -23 23.5 -49.5t11.5 -51.5q-2 -2 -3 -2t-3 -2l-47 -30q-23 -14 -47 -25q-201 -66 -379 -65q-139 0 -256 43t-202 136t-130 239.5t-41 353.5q0 14 1 31.5t3 29.5q12 178 69.5 317.5t152.5 234.5t225.5 144.5t287.5 49.5q283 0 443.5 -149.5t160.5 -457.5 q0 -178 -34.5 -296.5t-89 -189.5t-123 -99.5t-136.5 -28.5q-88 0 -131 43q-31 -16 -84 -34.5t-122 -18.5q-49 2 -92.5 12t-76 37.5t-52 76t-21.5 126.5q0 82 28.5 141t81.5 100q47 35 100.5 51.5t94.5 20.5q4 0 9 1t9 1h17h18q8 0 19 -2v16q0 8 2 17v-2q6 70 -15.5 111.5 t-78.5 39.5q-61 0 -127 -33q-29 -14 -72 -14q-16 18 -21.5 36.5t-9.5 35.5q0 4 -1 7t-1 5v8q0 12 6 23q27 29 99.5 57.5t160.5 28.5q78 0 131.5 -23.5t79.5 -75.5q25 -43 31 -112q4 -29 4 -60v-63q-2 -29 -2 -55v-54q0 -16 -1 -30.5t-1 -30.5v-32q0 -17 -2 -32q0 -35 -1 -84 t-3 -73q16 -12 26 -12q27 0 60 21.5t61.5 73.5t47 138t18.5 215q0 246 -103.5 356.5t-304.5 110.5q-256 0 -401.5 -163t-145.5 -501q0 -164 31 -277.5t89.5 -185t144.5 -103.5t198 -32q76 4 139.5 15.5t118.5 25.5h-2l77 19q36 8 69 4zM655 246q4 -37 19.5 -50.5t27.5 -17.5 h-2q10 -2 24.5 -1t25.5 3q31 4 53 26.5t33 59.5q0 43 2 98.5t2 98.5q-88 -4 -137.5 -43t-49.5 -148q0 -4 1 -7t1 -7v-12z" />
<glyph unicode="A" horiz-adv-x="1091" d="M844 33l-24 70l-21 71l-28 90l-32 105h-389l-63 -188l-54 -154q-6 -16 -21 -25.5t-58 -9.5q-23 0 -65 5t-77 13l8 44q4 22 11 36l86 253l102 290l132 368l102 302q6 23 13 37t26 14q2 0 10 4q6 2 12 3t16 1q16 2 35 2h29q33 -6 55 -31l72 -217l76 -235l37 -111l42 -127 l42 -122l32 -95h-2l57 -158q26 -72 44 -133l15 -52.5t15 -47.5l2 -4q0 -8 -12 -21q-23 -8 -61.5 -13t-67.5 -5q-23 0 -43 7t-49 30zM403 532h285q-8 23 -15 49l-14 48q-12 41 -22 79l-21 74l-26 80q-10 31 -16.5 53.5l-12.5 42t-12 46.5l-49 -159l-58 -186l2 3z" />
<glyph unicode="B" d="M106 1292v23q0 12 3 22q16 8 33.5 10.5t37.5 4.5q43 4 104.5 7t121.5 3q104 0 177.5 -23.5t122 -65.5t70 -98.5t21.5 -121.5q0 -109 -34 -170.5t-73 -94.5q-10 -6 -22 -14l-25 -16q31 -8 59 -27q25 -16 53.5 -38.5t54.5 -56.5t42 -82t16 -114q0 -117 -35.5 -201.5 t-97 -140t-146.5 -82t-183 -26.5q-78 2 -150 6t-150 12v1284zM324 150q18 -4 44.5 -5.5t43.5 -1.5q90 0 153.5 70t63.5 223v21q0 10 -2 20q-6 53 -25.5 88t-48.5 55.5t-65.5 28.5t-81.5 8h-41q-25 0 -41 -2v-505zM324 809q12 2 25 2h30q12 0 23.5 1t19.5 1q29 0 65 6h-4 q35 16 61.5 66.5t26.5 136.5q0 23 -2 33q-8 80 -54 116.5t-118 36.5q-12 0 -34.5 -1t-38.5 -3v-395z" />
<glyph unicode="C" horiz-adv-x="972" d="M629 1386q68 0 120 -11t88.5 -28.5t58.5 -37t30 -33.5q0 -35 -9.5 -62.5t-25.5 -48.5h-23q-14 -2 -23 2t-26 13q-4 2 -7 3t-7 3v-2q-23 10 -44.5 17t-45.5 11q-12 2 -28.5 3.5t-33.5 1.5h-20q-10 0 -21 -3q-66 -6 -125 -39.5t-104 -101t-71.5 -171t-26.5 -247.5 q0 -262 92 -382.5t260 -120.5q35 0 70.5 6t69.5 16t62.5 21.5t47.5 23.5q25 -41 28 -84q-6 -59 -53 -98q-29 -27 -97.5 -47.5t-156.5 -20.5q-127 0 -229.5 34t-174 112t-110.5 208t-39 322q0 385 181 584q86 92 185 124.5t208 32.5z" />
<glyph unicode="D" horiz-adv-x="1099" d="M152 1346q18 2 51 5t71.5 5t81.5 4t82 2q174 0 287 -47t179.5 -132t93 -201t26.5 -253q0 -211 -43 -358.5t-147 -245.5q-45 -41 -95.5 -67.5t-101.5 -42t-100.5 -20.5t-92.5 -5q-92 0 -170.5 6t-164.5 16v1186q0 59 5 88t23 55zM786 729q0 113 -16 196t-48 138t-81 86 t-115 41q-53 12 -116 12h-44q-22 0 -38 -2v-1040q51 -6 123 -6q61 0 120.5 22.5t107.5 85t77.5 175t29.5 292.5z" />
<glyph unicode="E" horiz-adv-x="804" d="M326 162q29 -4 68 -4h81h143q82 0 146 2q-10 -86 -27.5 -119t-58.5 -43q-39 -2 -97.5 -3t-144.5 -1q-92 0 -173 3t-140 9q-10 47 -17 88v971v131q0 66 -4 127q4 2 13.5 5t19.5 7l25 8q10 4 22.5 8.5t42.5 6.5h510q-2 -41 -6 -68.5t-10 -44t-15.5 -26t-23.5 -15.5 q-45 -8 -91 -9t-104 -1h-159v-393h376q-6 -55 -13 -87t-18.5 -49.5t-27.5 -22.5t-41 -5h-276v-475z" />
<glyph unicode="F" horiz-adv-x="788" d="M213 -6q-29 0 -55.5 5t-51.5 19v1076q0 68 -1 121t-3 102q8 4 19.5 11t9.5 5q16 6 41 14.5t59 10.5h525q-6 -86 -19.5 -115t-42.5 -37q-23 -6 -52.5 -7t-78.5 -1h-237v-418h385q-4 -53 -10.5 -85.5t-18.5 -50t-29.5 -23t-42.5 -5.5h-284v-407v-189q-16 -6 -46 -16 t-67 -10z" />
<glyph unicode="G" horiz-adv-x="1085" d="M649 745q4 6 13 13q4 4 11 9t15 5q25 2 62.5 3t79.5 2t79 1h58q10 -37 14 -102.5t4 -114.5v-481l-54.5 -36.5t-60.5 -33.5q-45 -16 -107.5 -28.5t-141.5 -12.5h-34q-17 0 -34 2q-106 10 -198.5 49t-160 119t-105.5 207t-38 311q0 217 57.5 359.5t131.5 222.5 q72 76 173 110.5t232 34.5q68 0 120 -11t89 -28.5t58.5 -37t29.5 -33.5q0 -29 -11 -52.5t-30 -47.5l-12 -3q-25 -4 -45 9h2l-12 6q-8 4 -15 6q-76 27 -162 27q-176 0 -274 -131.5t-98 -417.5q0 -160 28.5 -263.5t76.5 -164t110.5 -84t132.5 -23.5q47 0 83 9.5t54 23.5v440 q-20 0 -40.5 5t-37 19.5t-29 41t-14.5 71.5z" />
<glyph unicode="H" horiz-adv-x="1114" d="M784 0q-18 49 -18 106v533q-31 -2 -78 -2h-119h-241v-504q0 -37 -6.5 -62.5t-24.5 -52.5q-8 -10 -20.5 -14t-34 -7t-55.5 -3h-83q2 72 3.5 165t1.5 201v666q0 94 -1.5 169t-3.5 134q20 20 64.5 26.5t132.5 6.5q16 -25 21.5 -54.5t5.5 -82.5v-424h438v413q0 74 22 121 q20 18 61.5 22.5t139.5 4.5q-2 -74 -3 -167t-1 -200v-669q0 -96 1 -167t3 -130q-18 -23 -62 -29t-124 -6z" />
<glyph unicode="I" horiz-adv-x="444" d="M139 -6q-18 0 -27.5 10t-9.5 39v244q0 90 1 189t1 204q0 61 -1 121.5t-1 120.5v188q0 82 -1 130t-3 63q16 39 59.5 49t125.5 10q27 0 33 -35t6 -108v-254q0 -70 -1.5 -140.5t-1.5 -140.5t1.5 -136.5t1.5 -129.5v-201q0 -59 1 -98t1 -62v-28q-16 -23 -59.5 -29t-125.5 -6z " />
<glyph unicode="J" horiz-adv-x="585" d="M59 23q27 0 61 5t62.5 35.5t46.5 100.5q14 52 14 138q0 29 -1 60v682q0 84 -1 148.5t-3 112.5q18 37 64 47t138 10q14 -23 17.5 -51.5t3.5 -81.5v-838q0 -92 -4 -165.5t-19.5 -133t-44 -104.5t-76.5 -76q-51 -35 -124 -47q-16 -4 -34 -4h-30q-47 0 -82 10t-55.5 35.5 t-24.5 48.5q2 29 9 46l14 32q46 -10 69 -10z" />
<glyph unicode="K" horiz-adv-x="950" d="M129 -2q-14 20 -18.5 41.5t-4.5 48.5v971q0 86 -1 151.5t-3 118.5q16 14 63.5 22.5t139.5 8.5q14 -27 17.5 -55.5t3.5 -81.5v-422l55 78l55 77l143 203l142 199q18 4 30 4h25q10 0 21.5 -1t21.5 -1h35q35 -2 51.5 -13.5t16.5 -25.5t-15 -41q-4 -6 -12 -17l-15 -22 q-7 -10 -11.5 -17t-2.5 -5l-83 -114l-89 -122l-90 -121l-86 -114q43 -45 86 -104.5t84 -126t78 -134.5l70 -129l74 -134q34 -60 57 -83q0 -23 -35 -37q-12 -4 -36 -8t-52 -4h-31q-61 8 -95 57t-56 98q-20 45 -48 98.5t-61 109t-70 106.5t-73 94q-39 43 -53.5 62.5 t-30.5 29.5v-362q0 -49 1 -88t1 -74v-92q-14 -23 -56.5 -28t-126.5 -5z" />
<glyph unicode="L" horiz-adv-x="792" d="M307 1356q10 -27 14.5 -59.5t4.5 -90.5v-1040q35 -4 81 -5t93 -1q53 0 117.5 1t136.5 7q4 -35 4 -49v-29q-4 -27 -22.5 -54.5t-57.5 -37.5q-29 -2 -80 -3t-125 -1q-102 0 -197.5 4t-154.5 8l-4 30l-4 30q-2 12 -3 25t-6 26v987q0 72 -1 125t-3 90q20 27 59.5 35t129.5 8z " />
<glyph unicode="M" horiz-adv-x="1380" d="M172 1300q0 10 6 25.5t29 26.5q4 2 24 2q4 0 5.5 1t5.5 1q51 6 131 6q18 -37 42 -97l51 -136l56 -158l58 -164l2 -6l2 -6l-2 2l12 -35q4 -18 12 -40l15 -40l11 -39q5 -18 11 -37q4 -10 8 -19t4 -14l-2 2l15 -47q8 18 15 39t15 41q4 14 10 29l11 31l20.5 60.5t20.5 55.5 l43 115l41 115l54 152l50 141q2 2 3 5t3 5l-2 -2l7.5 15t17.5 18q33 6 83 10t95 4q8 -23 11 -45.5l8 -59.5l29 -373l32 -374v2q16 -137 25.5 -261t15.5 -220q-14 -25 -61.5 -31t-141.5 -6q-29 43 -29 92q0 12 -1 24.5t-3 22.5q-2 16 -3 31.5t-1 34.5l-4 48t-4 54l-4 72 q-2 37 -6 73q-2 16 -2 33t-2 29v-2q-2 10 -3 27.5t-1 27.5q-4 41 -4 95.5t-2 105.5q0 18 -1.5 35.5t-1.5 36.5q-2 18 -2 35.5t-2 33.5l-57 -170q-29 -84 -51 -141l-54 -152l-57 -155q-8 -20 -14 -39t-14 -37l2 2q-14 -41 -60 -49q-20 -4 -52 -6t-60 -2l-46 142l-59 173 q-14 35 -25.5 76t-25.5 80q-4 14 -22 65l-37 115q-12 37 -16.5 52l-6.5 21.5t-3 10.5t-5 16v-49q0 -18 -1 -36.5t-1 -39.5q-2 -55 -2 -110.5t-4 -94.5l-24 -249q-11 -121 -17 -215q-2 -6 -2 -23q-4 -16 -7.5 -31.5t-13.5 -33.5q-14 -10 -32.5 -17.5t-51.5 -7.5 q-16 0 -41.5 1t-52.5 5q-23 0 -23 14q6 100 15.5 218t21.5 249l26 271l26 280l12 133q6 68 10 131z" />
<glyph unicode="N" horiz-adv-x="1161" d="M686 692l72 -143l65 -137q-4 70 -5 155.5t-1 157.5v494q0 70 21 112q18 12 31.5 18.5t33 9.5t48.5 3h79q-2 -92 -3 -200.5t-1 -229.5v-903q-6 -4 -40 -22.5t-68 -18.5q-14 0 -45 2t-54 12l-87 156l-95 166v-2l-53 95l-56 95l-82 152l-46 95q-24 48 -46 99q-10 20 -19 44 t-20 42q-2 2 -3 4t-3 4q4 -92 6 -181t4 -155v-477q0 -41 -4 -63.5t-14 -44.5q-12 -12 -26.5 -20.5t-36 -11.5t-53 -4t-81.5 -1q2 88 3.5 195.5t1.5 230.5v860l-17 22q-8 11 -8 15v6q0 2 4 14q12 6 32.5 11.5t43 8.5t45 4t35.5 1q35 0 80 -27q33 -66 80 -147l104 -178 q16 -27 29.5 -52.5l27.5 -50.5l26 -45l27 -45z" />
<glyph unicode="O" horiz-adv-x="1191" d="M291 664q0 -266 84 -395.5t217 -129.5q141 0 219 131t78 414q0 141 -23.5 241.5t-63.5 166t-96.5 96.5t-119.5 31q-133 0 -214 -133t-81 -422zM594 1386q135 0 234.5 -47t164 -136t96 -219t31.5 -294q0 -342 -133 -531.5t-405 -189.5q-141 0 -241.5 49.5t-163 140.5 t-92.5 221t-30 294q0 354 138.5 533t400.5 179z" />
<glyph unicode="P" horiz-adv-x="886" d="M102 1290v27q0 8 -1 17t-1 18q25 18 76 20q47 4 101.5 5t109.5 1q106 0 190.5 -23.5t142.5 -74.5t89 -132t31 -196q0 -111 -34 -186.5t-86 -123.5t-113.5 -71.5t-114.5 -29.5q-20 0 -43 2t-42.5 11t-32 28.5t-12.5 54.5q0 10 15.5 19.5t34.5 9.5q33 0 67.5 14t62 49 t46 91.5t18.5 140.5q0 70 -16.5 118.5t-44 78.5t-64.5 43t-80 13h-44q-19 0 -35 -2v-884l2 -226q0 -51 -25 -84q-18 -18 -49 -21t-92 -3h-56q2 88 3 194.5t1 229.5z" />
<glyph unicode="Q" horiz-adv-x="1198" d="M1419 -137q53 -14 90 -43t62 -56l-6 -16q-6 -12 -10.5 -22.5t-20.5 -42.5q-27 20 -67 37.5t-93 21.5q-16 1 -34 1q-49 0 -108 -8q-81 -11 -167 -32q-90 -23 -172 -38q-53 -10 -101 -10q-25 0 -49 3q-61 8 -107 47t-79 90t-49 102.5t-19 86.5q-117 14 -197.5 73.5 t-133 150.5t-76 211t-23.5 255q0 354 139.5 533t401.5 179q135 0 234.5 -47t164 -136t96 -219t31.5 -294q0 -162 -26.5 -283.5t-76.5 -207.5t-122 -137.5t-160 -73.5q2 -18 8.5 -43t17.5 -48.5t28.5 -44t42.5 -28.5h-2q41 -10 67 -10q37 0 80 7t88 17q12 4 27.5 5t29.5 5 q53 10 104.5 16.5t98.5 6.5q23 0 46.5 -2t41.5 -6zM598 137q139 0 217 131t78 414q0 143 -20.5 244.5t-58.5 166t-92 94.5t-122 32q-141 0 -221 -134.5t-80 -422.5q0 -264 85 -394.5t214 -130.5z" />
<glyph unicode="R" horiz-adv-x="948" d="M963 41q7 -9 6 -16q0 -8 -8 -14q-16 -11 -43 -15q-31 -8 -74 -8h-29q-31 2 -54.5 18.5t-42 38t-32.5 48t-24 50.5l-49 97q-28 53 -59.5 106t-67 105.5t-72.5 95.5q-4 0 -10.5 1t-10.5 1h-69v-447q0 -25 -4.5 -44t-18.5 -38q-16 -20 -52 -23t-106 -3h-41q2 90 3 196.5 t1 227.5v682v101q0 46 -2 89v20q0 11 2 21q12 10 24.5 13.5t35.5 7.5q4 0 7 1t5 1q4 2 12.5 2t16.5 2h12q18 2 40 3t40 1h98q12 0 27.5 -1t28.5 -1q186 -10 279 -102.5t93 -288.5q0 -63 -22.5 -122t-53 -107t-63.5 -82.5t-53 -51.5q59 -86 109 -179l94 -173l74 -135 q32 -57 51 -76zM481 715q45 16 80 77.5t35 180.5t-51 178t-133 59q-27 0 -49.5 -1t-38.5 -3v-499h82q23 0 42 1t33 7z" />
<glyph unicode="S" horiz-adv-x="819" d="M438 1386q129 0 199 -32.5t86 -57.5q0 -47 -35 -100q-18 -12 -39 -12q-23 0 -43 10q-29 14 -68.5 23.5t-80.5 9.5q-80 0 -126 -38t-46 -114v-26q6 -39 23.5 -71t45.5 -63q31 -35 74 -75l80 -76q2 -2 5 -4t3 -4l61 -58q30 -29 54 -55q66 -68 96.5 -138.5t30.5 -156.5 q0 -172 -104.5 -275.5t-305.5 -103.5q-106 0 -177 22.5t-99 51.5q-31 29 -31 51q0 25 16.5 66t38.5 76q51 -41 115.5 -68t130.5 -27q84 0 134 50.5t50 142.5q0 63 -27.5 114.5t-97.5 116.5q-16 20 -34 39l-39 39q-4 4 -11.5 10t-15.5 15l-25 24l-69 69q-33 32 -57 62 q-53 66 -74 124.5t-21 115.5q0 61 21.5 118.5t67.5 103.5t119 73.5t175 27.5z" />
<glyph unicode="T" horiz-adv-x="958" d="M575 1192v-905q0 -86 1.5 -149.5t3.5 -110.5q-12 -10 -26.5 -17.5t-36 -10.5t-53.5 -4t-81 -1q-25 43 -25 96v1102h-239q-23 0 -48.5 2t-54.5 6q-4 12 -4 18v11q0 20 5.5 47t13.5 45q4 12 13 22.5t17 18.5h29q6 0 14.5 -1t16.5 -1q35 -2 77 -2h101h639q0 -35 -4 -64.5 t-10 -54.5q-6 -23 -28 -33t-32 -14h-289z" />
<glyph unicode="U" horiz-adv-x="1150" d="M573 135q92 0 138.5 13.5t68.5 29.5l-8 -6q20 104 29.5 229t9.5 248l2 555q0 37 6 69t17 60q14 8 27.5 14.5t34 9.5t51 4t79.5 1q-2 -80 -3 -179.5t-1 -211.5v-322q0 -164 -13.5 -297t-41.5 -248q-66 -78 -175.5 -106.5t-232.5 -28.5q-121 0 -203 33t-132 92.5t-76.5 139 t-36.5 176.5q-4 51 -7.5 103t-3.5 112v383q0 98 -1 176t-3 141q16 23 63.5 30t137.5 7q18 -33 22.5 -67.5t4.5 -94.5v-559q0 -61 3 -117.5t11 -105.5q23 -125 75 -204t158 -79z" />
<glyph unicode="V" horiz-adv-x="1026" d="M539 -14q-5 0 -10 -1q-21 0 -42 8q-25 9 -43 19q-23 12 -43 31q-4 8 -16 39q-8 27 -18.5 56.5t-20.5 64.5l-39 129l-42 143l-44 148l-43 141l-57 198l-48 160l-37 117l-22 66q8 23 24.5 35t55.5 16q27 4 57.5 5t61.5 1q23 -25 32 -46.5t21 -58.5q4 -10 8 -22l9 -25 l54 -200l64 -219l28 -96l28 -97q10 -39 18 -74t19 -69q8 -29 12 -45.5t8 -29.5t8 -31l10 -44l17 61l18 64l21 83l22 89l52 181l51 178q4 10 5 18t5 18l-2 -2l32 115l29 100q6 16 11.5 34t9.5 36q4 16 10 31l18 41q23 6 34.5 7t17.5 1h20q29 -2 55.5 -3t53.5 -5q18 -6 18 -37 q0 -12 -2 -25.5t-6 -29.5q-2 -10 -4 -18.5t-4 -18.5l-18 -59l-19 -68l-35 -117l-41 -139l-72 -248l-70 -236q-34 -111 -63.5 -197.5t-50.5 -131.5q-29 -18 -49 -27.5t-57 -13.5z" />
<glyph unicode="W" horiz-adv-x="1599" d="M745 1313q12 4 25.5 5t28.5 3q14 2 29.5 3t39.5 1q14 -18 23.5 -43t15.5 -51l38 -149l46 -191q16 -61 31.5 -132t34.5 -143q2 -10 4 -17t4 -17l14 -70l13 -55q6 -27 12 -57l14 -70q6 29 13.5 57.5t13.5 61.5q8 37 14 77.5t17 81.5q57 217 96 380l69 302l11 33l-2 -2 q2 6 3 12t9 17q8 8 20.5 9t34.5 1q6 0 11.5 -1t11.5 -1q10 0 23.5 -1t23.5 -3q41 0 72 -13v-14q0 -10 -2.5 -29.5t-10.5 -50.5l-21 -82l-24 -90q-6 -29 -14 -57l-17 -60l-21 -87l-22 -93l-57 -230l-56 -222l-50 -183q-23 -78 -37 -110q-2 -2 -4 -3t-4 -3l-42.5 -25.5 t-52.5 -15.5q-5 0 -9 -1q-19 0 -39 7q-24 8 -44 18q-23 12 -43 29q-2 6 -3 10t-3 10l2 -2q2 -4 -1 7.5t-7 19.5q-4 16 -6 25.5t-6 25.5l-44 177l-49 192q-12 51 -21 94l-18 87l-20 92l-22 110l-41 -193l-43 -188q-4 -10 -8.5 -31.5t-12.5 -52.5l-27 -111l-28 -117l-26 -100 q-11 -43 -13 -55q-23 -20 -46.5 -32.5t-62.5 -16.5q-25 -4 -49 4t-43 20q-23 12 -43 33v6l-10 25q-6 14 -10 33q-23 82 -52 200l-59 242l-44 175l-42 171q-10 41 -18 80l-17 76l-36 156q-15 65 -25 85q8 23 26.5 38.5t57.5 19.5q49 6 102 6q8 -2 18.5 -19.5t18.5 -39 t13 -43.5l8 -29l53 -231l65 -271l31 -123q6 -31 11 -59.5t12 -57.5q6 -31 9 -44t6 -24t6 -26l9 -45l20.5 105.5t24.5 119.5l80 331l86 347l4 21l4 20q6 6 14 11.5t31 9.5z" />
<glyph unicode="X" horiz-adv-x="1038" d="M1004 37q2 -8 2 -19q-23 -20 -70 -23t-90 -3q-23 0 -47.5 5t-50.5 19l-56 111l-59 115q-2 4 -4 7t-4 7q-10 16 -17.5 34.5t-17.5 37.5l-44 92q-19 41 -48 88l-23 -42l-24 -46q-16 -35 -41 -81l-45 -83l-69 -122l-56 -105q-14 -20 -29.5 -26.5t-36.5 -6.5q-14 0 -45 2 t-57 6l-19 3q-6 1 -12 3t-39 2l157 283l177 313q10 23 24.5 42.5t24.5 41.5l-85 163l-91 169l-84 154q-41 76 -70 135q0 8 4 16t21 14q37 8 84 13.5t106 5.5q16 -16 27 -34l27 -46l46 -83q24 -42 42 -79l58 -126q24 -52 56 -111l33 63l33 68l30.5 60.5l30.5 60.5l38 69 l34 70l12 23l13 24l4 8l4 8q18 23 59 23q27 0 67 -4t89 -13q-4 -14 -7 -28.5t-8 -30.5q-53 -106 -138 -258l-181 -313l121 -212l97 -180l80 -153z" />
<glyph unicode="Y" horiz-adv-x="966" d="M729 1343q23 8 41 12.5t41 4.5q12 0 39 -2t74 -6q4 -10 5 -19.5t1 -13.5q0 -16 -6 -32l-15 -36l-2 -2q2 0 1 -3t-3 -5q-23 -53 -68 -138l-94 -171l-77 -140q-37 -69 -56 -112q-8 -23 -15 -45.5t-11 -50.5v-295q0 -49 1 -90t1 -76v-94q-10 -10 -21.5 -17.5t-33 -11.5 t-56.5 -6t-90 -2q-20 49 -20 100v475v26q0 11 -3 17q-16 41 -43.5 101.5t-64.5 130.5l-57 113l-62 118l-65 127l-62 123q0 14 20.5 19.5t94.5 5.5h119q16 -41 51 -117l72 -156l71 -165l47 -101z" />
<glyph unicode="Z" horiz-adv-x="976" d="M78 1235q2 10 3 17.5t3 15.5q4 14 4 22t4 25q4 12 16.5 28.5t34.5 20.5q25 -2 54.5 -4t70.5 -2l623 -6v-25q0 -4 1 -11t1 -13q0 -47 -27 -101l-103 -211l-137 -263l-156 -287l-159 -281q88 -4 204 -4h226q55 0 94 3t60 5q4 0 15.5 1t13.5 1q4 -23 5 -40v-12q0 -11 -1 -22 q-12 -31 -36 -59.5t-52 -32.5q-16 -2 -38 -3t-51.5 -2t-70.5 -1h-98q-186 0 -312.5 2t-201.5 6q-4 4 -15.5 19.5t-15.5 31.5q0 4 -1 8.5t-1 8.5v10q0 4 1 6t1 6v14l166 283l164 288l150 275l126 244h-442q-68 0 -95.5 8t-27.5 25v6z" />
<glyph unicode="[" horiz-adv-x="753" d="M471 1632q49 -8 98 -19l95 -22q4 -2 14 -4t14 -4q0 -31 -2 -50.5t-9 -29.5t-20.5 -14t-33.5 -6q-16 -2 -34 -2t-32 -2q-41 -2 -82 -6q-23 -4 -40 -6.5t-33 -10.5v-66v-91q0 -48 -1.5 -94t-1.5 -77q-2 -106 -3 -250.5t-1 -293.5v-224v-162q0 -69 1 -119t1 -91 q2 -31 6.5 -60.5t12.5 -50.5q20 -2 39.5 -2t44.5 -2q12 -2 28.5 -2t32.5 -2q29 -2 59.5 -6t57.5 -13q0 -39 -2 -62.5t-8 -36.5t-16.5 -20t-24.5 -12q-117 0 -222 7l-171 10q-6 0 -17.5 1t-15.5 1q-2 55 -2 125v141v295q0 80 1 162t1 166q0 94 1 208l2 232l2 237q1 118 3 222 q0 16 2 39.5t10 38.5q4 4 32 9t64.5 9t76.5 7t71 3h2z" />
<glyph unicode="\" horiz-adv-x="688" d="M225 1430l92 -339l91 -339l93 -340l91 -340q10 -41 16 -74t6 -61q0 -16 -2 -27q-12 -23 -44.5 -29t-125.5 -6l-118 435l-117 435l-85 315l-85 314q-2 6 -2 11v10q0 23 26.5 33t104.5 10h39z" />
<glyph unicode="]" horiz-adv-x="753" d="M262 -281q-57 8 -112.5 20.5t-108.5 29.5q0 31 2 49t9 29.5t20.5 15.5t36.5 6q4 0 9 1t9 1q35 4 67.5 5t59.5 3q18 2 37.5 6t34.5 11q0 25 1 66.5t1 72.5q2 131 4 312t2 421v250v207q0 78 -2 137q-2 31 -6 61.5t-13 51.5q-18 2 -38.5 2t-43.5 2q-14 2 -30.5 2t-32.5 2 q-29 2 -59.5 6t-57.5 12q0 39 2 62.5t8.5 37t15.5 20.5t25 11q61 0 125 -2t120 -5t103.5 -7t77.5 -6q2 -57 2 -125v-139v-295q0 -82 -1 -164t-1 -166q0 -94 -1 -208l-2 -232l-2 -237q-1 -118 -3 -222q0 -16 -2 -39t-12 -37q-4 -4 -32 -9t-64.5 -9t-75.5 -7.5t-70 -3.5h-2z " />
<glyph unicode="^" horiz-adv-x="796" d="M424 1395q14 -16 38.5 -53t52.5 -87l57 -104l57 -104l50 -90l34 -58q-16 -25 -46 -53.5t-59 -28.5t-55 31q-12 14 -29 45l-37 69l-40 78l-37 78l-20 41q-3 6 -7 17q-12 -23 -24.5 -52.5l-26.5 -60.5l-58 -123q-29 -59 -45 -84q-12 -14 -30.5 -24.5t-28.5 -10.5 q-29 10 -56.5 24.5t-37.5 37.5q4 10 15 32l24 50l46 99l51 111l50.5 101t42.5 72q10 10 21.5 20t31.5 23q16 8 52 8z" />
<glyph unicode="_" horiz-adv-x="899" d="M0 -199q0 57 3 89t24 55h872q0 -57 -3 -90t-24 -54h-872z" />
<glyph unicode="`" horiz-adv-x="657" d="M367 1122q-12 16 -50 50l-79 73l-58 55l-71 72q-2 4 -3 10q0 18 19 43q18 27 46 46.5t60 19.5q10 0 43 -32t70 -75t72 -89t49 -76q4 -8 4 -15q0 -12 -9 -26.5t-22.5 -27.5t-28 -22.5t-26.5 -9.5z" />
<glyph unicode="a" horiz-adv-x="829" d="M102 838q-4 10 -4 15v11q0 10 6 27q16 14 48 31.5t74 33t92.5 25.5t103.5 12h36q11 0 36 -2q123 -8 170 -81.5t47 -209.5v-90v-115q0 -58 -2 -116v-43q0 -25 -1 -49.5t-1 -46.5v-37q-2 -27 4 -45q4 -16 16 -27.5t37 -7.5q-2 -23 -3 -50.5t-1 -37.5q-14 -20 -47 -37.5 t-80 -20.5q-35 0 -69 18.5t-54 41.5l-21.5 -15.5t-23.5 -15.5q-37 -18 -76 -23.5t-82 -5.5q-53 0 -101 16.5t-87 50.5t-61.5 86t-22.5 124q0 92 38 154.5t93 100.5t116.5 55.5t110.5 23.5q14 2 30 2h30h24q10 0 21 -2v100q0 66 -12.5 98.5t-63.5 32.5q-49 0 -104.5 -17.5 t-100.5 -33.5q-16 -8 -34.5 -12t-41.5 -4q-23 23 -30 47t-11 41zM494 219q4 18 4 42v54v136h-21q-16 0 -31.5 -1t-31.5 -4h2q-33 -6 -62.5 -17t-52 -31.5t-36 -51.5t-13.5 -76q0 -72 24.5 -100.5t63.5 -32.5h12q41 0 81 17.5t59 42.5l-3 -2q0 -2 1.5 6z" />
<glyph unicode="b" horiz-adv-x="948" d="M125 35q-12 29 -16.5 56.5t-4.5 62.5v1034q0 66 -1 113t-3 81q18 41 68.5 53.5t128.5 12.5q10 -27 15 -60.5t5 -103.5v-348q43 25 95.5 41t119.5 16q74 0 137.5 -23.5t110.5 -75.5t74 -134t27 -197q0 -104 -16.5 -187t-45 -145.5t-65.5 -106.5t-76 -73 q-66 -45 -139.5 -61.5t-137.5 -16.5q-86 0 -155.5 14.5t-114.5 43.5zM317 145q18 -8 45 -13t56 -5q39 0 81 18.5t75.5 65.5t55 125t21.5 199q0 164 -51 229t-141 65q-33 0 -72 -12t-70 -35v-637z" />
<glyph unicode="c" horiz-adv-x="774" d="M731 903q0 -20 -8 -52t-25 -58h-24q-16 0 -32.5 4t-35.5 10q-25 10 -53.5 17t-54.5 7q-12 0 -23 -2q-90 -8 -146.5 -91t-56.5 -261q0 -106 20.5 -172.5t53.5 -104.5t76 -51.5t88 -13.5q47 0 97 14.5t91 34.5q8 -23 13.5 -45t5.5 -33q-2 -23 -16.5 -47t-36.5 -41 q-31 -23 -81.5 -35t-109.5 -12q-86 0 -163 19.5t-135 74t-92 151.5t-34 251q0 162 46 265.5t108 160.5q61 57 137 78.5t154 21.5q49 0 90 -10t72.5 -23.5t51 -29t23.5 -25.5v-2z" />
<glyph unicode="d" horiz-adv-x="952" d="M821 201q-2 -27 4 -45q4 -16 16.5 -27.5t37.5 -5.5q-2 -23 -3.5 -52.5t-1.5 -37.5q-16 -23 -47.5 -39.5t-78.5 -18.5q-6 -1 -13 0q-31 0 -58 17q-32 20 -52 43l-21.5 -16.5t-28.5 -16.5v2q-35 -18 -73 -26q-30 -6 -63 -5h-19q-80 4 -147.5 30t-117 81t-77 144t-27.5 223 q0 137 38 241.5t101 175.5q57 63 131 94t152 31q47 0 79 -6t58 -16v217q0 66 -1 113t-3 81q18 41 69.5 53.5t129.5 12.5q10 -27 14 -60.5t4 -103.5v-678v-229q0 -35 -1 -91t-1 -85zM610 807q-20 14 -49 22.5t-59 8.5q-41 0 -81 -19.5t-71 -63.5t-50 -114t-19 -170 q0 -94 14 -157.5t40.5 -102.5t62.5 -55.5t77 -16.5t76 14.5t55 39.5l-2 -3q4 4 4 25q2 16 2 40v56v496z" />
<glyph unicode="e" horiz-adv-x="835" d="M485 143q59 0 119 13.5t119 46.5q10 -29 14 -57.5t6 -45.5q0 -16 -12 -32.5t-30.5 -30.5t-42 -25.5t-48.5 -17.5h2q-23 -6 -66.5 -13.5t-92.5 -7.5q-78 0 -153 19.5t-136 81.5q-57 59 -85 153.5t-28 221.5q0 150 31 253t85 167.5t129 94t163 29.5q147 0 223 -78.5 t88 -214.5q2 -23 3 -47t1 -51q0 -70 -10 -121q-18 -16 -66.5 -32.5t-93.5 -22.5q-47 -6 -119.5 -9t-144.5 -3q-25 0 -36 -1t-36 1q4 -154 62.5 -212.5t154.5 -58.5zM430 842q-55 -8 -101 -75t-57 -206h58q53 0 109.5 1t86.5 5q8 2 15.5 3t15.5 5q4 10 6 26.5t2 35.5 q0 6 -1 11t-1 11v21q-8 82 -36.5 122t-88.5 40h-8z" />
<glyph unicode="f" horiz-adv-x="559" d="M688 1409q8 -10 9 -19.5t1 -21.5l-4 -19.5t-8 -25.5q-12 -29 -22 -39q-27 -14 -50 -6q-10 6 -18 6q-16 4 -35.5 6t-38.5 2q-31 0 -58.5 -8t-50 -31.5t-37 -63.5t-16.5 -102q-2 -31 -2 -58v-62h88q35 0 76 1t60 3q-2 -41 -6.5 -67.5t-10.5 -42t-16 -24t-25 -14.5l2 2 q-4 -2 -12 -5t-12 -5q-29 -4 -65 -4h-81v-185q0 -99 1 -201l2 -198q1 -96 1 -176q0 -10 -3 -25.5t-21 -21.5q-33 -6 -71 -8t-56 -2q-33 0 -66 6q-2 10 -2 25v30v121q0 29 1 60.5t1 64.5v248q0 68 -1 130t-1 132q-86 4 -125 33q4 31 8.5 49t11.5 28.5t17 16.5t27 10 q10 4 23.5 6t37.5 9q0 41 2 77.5t7 69.5v-2q8 104 45.5 171t91 104.5t116 53t117.5 15.5q68 0 109 -13.5t57 -29.5h2z" />
<glyph unicode="g" horiz-adv-x="882" d="M770 639q0 -166 -93 -256t-259 -90q-29 0 -48.5 1t-37.5 5l-41 -41q-6 -6 -8 -14t-2 -15q0 -33 104 -43l80 -6l49 -4l49 -4q20 -2 40 -3t34 -5q96 -18 156.5 -71.5t64.5 -145.5q0 -68 -32.5 -137.5t-92 -130t-140.5 -107.5t-175 -70q-41 -8 -91.5 -13t-99.5 -5 q-78 0 -139 19.5t-78 70.5q-2 8 -1 17q0 32 24 71q31 49 80 100.5t106 97.5t107 79q39 -20 47 -63q2 -9 2 -18q0 -30 -23 -51q-25 -20 -49 -43.5t-42.5 -45t-30 -41t-7.5 -33.5q4 -12 17.5 -16.5t33.5 -4.5q31 0 70 7.5t68 11.5q51 14 94 42.5t75.5 64.5t50 74t17.5 68v29 q-12 33 -32.5 56.5t-73.5 29.5q-35 4 -69 6l-68 4q-10 0 -19.5 1t-19.5 1q-68 6 -113 17l-43 12q-76 23 -114 61.5t-40 86.5q0 16 27 49q23 23 49.5 45t48.5 45q8 6 9.5 9t7.5 9q-66 41 -98.5 112t-32.5 167q0 86 26.5 153.5t74.5 113.5t114.5 70.5t146.5 24.5 q53 0 100.5 -15t81.5 -32q-6 4 0 8q35 2 74 3t72 4h-2q20 2 46.5 3t43.5 1q6 -12 11 -29.5t5 -40.5q0 -41 -18.5 -66.5t-55.5 -25.5h-34q-12 0 -31 2q25 -39 36 -78t11 -88zM406 856q-59 0 -97 -52q-29 -41 -29 -118q0 -21 3 -45q8 -98 46 -153.5t113 -55.5q70 0 99 64 q22 49 22 119q0 20 -2 42q-10 94 -47.5 146.5t-107.5 52.5z" />
<glyph unicode="h" horiz-adv-x="942" d="M98 4q2 88 3 191.5t1 228.5v772q0 63 -1 108.5t-3 79.5q20 41 68.5 52.5t126.5 11.5q12 -23 17 -51.5t5 -91.5v-390q25 16 50.5 29.5t48.5 24.5q29 10 63.5 17t75.5 7q80 0 132 -21.5t84 -68.5t44 -120.5t12 -178.5v-297v-154q0 -71 2 -126q-10 -10 -21 -16.5 t-32.5 -10.5t-56.5 -5t-90 -1q-18 49 -19 102v490v48q0 19 -4 36q-4 90 -34.5 121.5t-75.5 31.5q-53 0 -98.5 -24.5t-80.5 -57.5v-612q0 -31 -4 -56.5t-18 -49.5q-14 -10 -27.5 -16.5t-32 -9.5t-46.5 -3h-70z" />
<glyph unicode="i" horiz-adv-x="434" d="M297 967q12 -25 15 -53.5t3 -94.5v-686q0 -68 -28 -113q-6 -8 -16.5 -13t-32 -7t-55 -3t-87.5 -3v168q0 45 1 92t1 96v357q0 70 -1 118.5t-3 89.5q18 39 67.5 48.5t119.5 9.5zM88 1307q0 123 127 123q72 0 93 -30q20 -27 20 -79q0 -66 -27 -106q-25 -36 -98 -35 q-63 0 -89 30.5t-26 96.5z" />
<glyph unicode="j" horiz-adv-x="442" d="M303 967q10 -20 13 -47t3 -86v-641q0 -141 -12 -261q-10 -119 -61 -206q-33 -49 -81 -80t-112 -39q-12 -2 -24 -2h-23q-51 0 -76 8q-76 12 -84 74q0 14 4.5 34.5t14.5 36.5h20q4 0 6.5 -1t6.5 -1q27 0 58.5 8.5t63.5 22.5q41 18 58.5 67.5t21.5 135.5q2 35 3 78t1 84v514 q0 82 -1 140t-3 109q18 39 66.5 48.5t118.5 9.5zM92 1307q0 123 127 123q72 0 93 -30q20 -27 20 -79q0 -66 -27 -106q-25 -36 -98 -35q-63 0 -89 30.5t-26 96.5z" />
<glyph unicode="k" horiz-adv-x="831" d="M98 4q0 27 1 81t2 114.5t1 115.5v84v740q0 53 -1 98t-3 86l-2 55q18 43 65.5 57.5t123.5 14.5q14 -23 21 -56.5t7 -113.5v-332q53 39 109.5 51.5t122.5 12.5q55 0 92 -19.5t58.5 -49.5t29.5 -66.5t8 -69.5q0 -80 -29.5 -141.5t-70.5 -105.5t-86 -72.5t-78 -43.5 q27 -20 63 -60l78 -88l84 -100l80 -98l52 -61q24 -29 40 -51q13 -12 13 -22q0 -7 -7 -12q-16 -13 -45 -24q-35 -10 -79 -10q-35 0 -59.5 9.5t-59.5 37.5q-23 18 -39 41l-39 51l-55 67q-29 36 -58 66q-8 10 -23 26l-34 34l-41 42q-18 19 -27 30v-254q0 -29 -5 -43.5 t-25.5 -21.5t-58.5 -8t-105 -1zM313 532q78 41 135.5 104.5t57.5 143.5q0 29 -11.5 49.5t-35.5 20.5q-29 0 -68 -25.5t-78 -79.5v-213z" />
<glyph unicode="l" horiz-adv-x="432" d="M311 201q-2 -27 4 -45q4 -16 17.5 -27.5t38.5 -7.5q-2 -23 -3 -51.5t-1 -36.5q-16 -23 -48 -39.5t-79 -18.5q-23 0 -44.5 8.5t-37.5 20.5q-29 20 -44.5 49t-15.5 60v1044q0 74 -1 128t-3 99q18 43 71.5 53.5t131.5 10.5q10 -35 12 -78t2 -121v-1048z" />
<glyph unicode="m" horiz-adv-x="1411" d="M809 39q0 -33 -41 -43q-10 -2 -29 -2h-47h-102q4 78 4 175v212v244q0 113 -25.5 157.5t-91.5 44.5q-47 0 -86 -21.5t-67 -51.5v-656q0 -25 -4.5 -43t-18.5 -35q-12 -10 -26.5 -15t-35 -8t-52.5 -3h-81q2 78 3 176v213v362q0 49 -7.5 86t-17.5 68q20 25 88 51q10 4 16 4 h11q29 0 47 -13t28 -30q61 43 121 62q61 20 133 20h20q11 0 21 -2q66 -6 109 -28.5t72 -57.5q29 23 65.5 39.5t67.5 26.5q59 20 129 20h23q11 0 20 -2h-2q72 -6 119 -32.5t73.5 -72.5t36.5 -109.5t10 -141.5v-340v-145q0 -69 4 -121q-12 -10 -26.5 -16.5t-37 -9.5t-55 -5 t-83.5 -2q-8 16 -13.5 34.5t-5.5 41.5v553q0 113 -24.5 157.5t-89.5 44.5q-47 0 -87 -23.5t-71 -56.5l6 7v-713z" />
<glyph unicode="n" horiz-adv-x="946" d="M473 823q-49 0 -89 -22.5t-71 -57.5l6 7v-631q0 -35 -4 -55.5t-20 -43.5q-10 -10 -21.5 -14t-27 -7t-38 -4t-54.5 -1h-54q2 82 3 184.5t1 218.5v344q0 49 -6 86t-16 68q23 25 86 51q10 4 17 4h12q29 0 46 -12t27 -31q31 23 61.5 37t59.5 25q33 10 64.5 16t68.5 6 q96 0 155.5 -24.5t93.5 -70.5t45 -113.5t11 -155.5v-310q0 -84 1 -157.5t4 -132.5q-10 -10 -23.5 -16.5t-35 -9.5t-55.5 -5t-85 -2q-23 43 -23 92v537q0 111 -30.5 155.5t-108.5 44.5z" />
<glyph unicode="o" horiz-adv-x="927" d="M862 492q0 -129 -30.5 -226.5t-86 -163t-130 -98.5t-162.5 -33q-197 0 -303.5 120t-106.5 388q0 131 30.5 228.5t86 161t131.5 94t168 30.5q203 0 303 -126.5t100 -374.5zM270 487q0 -102 14.5 -171.5t39 -112.5t58.5 -61.5t75 -18.5q37 0 69.5 18.5t57 61.5t39 111.5 t14.5 170.5q0 193 -49 273t-135 80q-37 0 -70 -19.5t-57.5 -60.5t-40 -109t-15.5 -162z" />
<glyph unicode="p" horiz-adv-x="958" d="M309 -395q-12 -8 -44 -14.5t-70 -6.5q-35 0 -82 10q-4 27 -5.5 78.5t-1.5 128.5v944q0 47 -6 84t-16 68q10 16 31.5 27.5t54.5 25.5q16 4 18 4h9q29 0 47 -13t28 -30q61 39 123 62q31 10 60.5 16t66.5 6q76 0 142.5 -24.5t116.5 -78.5t79 -139t29 -204 q0 -193 -51.5 -313.5t-132.5 -186.5q-55 -47 -112.5 -62.5t-111.5 -15.5q-100 0 -159 35v-307v-47q0 -20 -5 -41zM451 127q33 0 69.5 17.5t67 63.5t51 125t20.5 202q0 158 -47 225t-133 67q-45 0 -86 -21.5t-71 -47.5v-576q23 -23 57.5 -39t71.5 -16z" />
<glyph unicode="q" horiz-adv-x="954" d="M827 -346q0 -41 -18 -55.5t-86 -18.5h-113q2 68 3 153t1 187v100q-37 -23 -87 -38t-103 -15q-72 0 -138.5 24.5t-118.5 81t-84 146.5t-32 221q0 147 47 257t125 180q47 41 108.5 70.5t137.5 39.5q18 2 37.5 3t38.5 1q152 0 307 -63q-10 -31 -17.5 -68t-7.5 -88v-1118z M614 786q0 16 4 37q-29 10 -56 12.5t-52 4.5q-43 0 -84 -22.5t-72.5 -71t-52 -122t-20.5 -175.5q0 -84 15 -143.5t42 -96.5t63.5 -54.5t77.5 -17.5q35 0 74 16.5t61 47.5v585z" />
<glyph unicode="r" horiz-adv-x="634" d="M457 803q-41 0 -76 -12.5t-64 -40.5v-646q0 -25 -3 -44t-17 -40q-12 -10 -25.5 -15t-35 -7t-54 -3t-82.5 -1q2 82 3 184.5t1 220.5l2 342q0 49 -8 86t-18 68q12 12 32.5 24.5t55.5 26.5q10 4 16 4h13q33 0 48 -9t25 -32q29 20 60.5 34.5t60.5 25.5q27 10 59 15q18 3 34 3 q13 0 26 -2q92 -10 102 -57q0 -23 -7 -61t-30 -68q-10 -4 -14 -4h-18q-16 0 -31.5 1t-28.5 3q-10 4 -16 4h-10z" />
<glyph unicode="s" horiz-adv-x="729" d="M385 993q16 0 32.5 -1t26.5 -3q98 -8 145.5 -38.5t53.5 -53.5q0 -20 -12.5 -51t-28.5 -53q-6 2 -19.5 4t-21.5 4q-16 4 -33.5 7t-33.5 9q-47 18 -93 19q-53 0 -84.5 -27t-31.5 -68q0 -25 11 -47t44 -49l39 -29l47 -32q29 -23 60 -45l59 -43q66 -53 96.5 -108.5 t30.5 -121.5q0 -74 -28 -128t-77 -91t-114.5 -55.5t-139.5 -18.5q-100 0 -177 28t-95 71q0 23 11 54.5t30 55.5h20q27 0 62 -18v2q33 -14 70.5 -23.5t74.5 -9.5q8 0 17.5 1t19.5 3q47 4 72.5 34t25.5 77q0 35 -17 64.5t-60 58.5l-17.5 12t-7.5 4l-73 54.5t-66 54.5l-51 41 q-94 94 -95 198q0 123 90.5 190.5t237.5 67.5z" />
<glyph unicode="t" horiz-adv-x="669" d="M610 164q2 -10 3 -21.5t1 -25.5v-30q0 -15 -2 -28q-6 -18 -28 -39q-35 -23 -88.5 -36t-102.5 -13q-78 0 -125 31t-73.5 81t-35.5 112.5t-9 126.5v487q-41 2 -70 10t-51 19q0 45 3 54t15 21q23 16 45 24l43 13q12 4 17.5 3t15.5 3q2 43 5 89.5t5 89.5q12 35 56.5 61.5 t136.5 32.5v-33q-2 -66 -3 -118t-1 -111h260q-4 -86 -18.5 -115t-45.5 -35q-10 -2 -24.5 -3t-26.5 -1q-31 -2 -59 -2h-86q-2 -68 -3.5 -133.5t-1.5 -130.5q0 -35 1.5 -68t1.5 -65v-101q6 -80 22 -131t66 -51q10 0 28.5 4t38 10.5t34.5 13.5t21 11z" />
<glyph unicode="u" horiz-adv-x="952" d="M315 922q10 -35 16.5 -77t6.5 -120l-21 -369q0 -66 9.5 -106.5t27 -64t43 -32t56.5 -8.5q8 -1 16 0q38 0 73 16q42 19 66 48v639q0 35 4 56.5t21 41.5q20 18 47 21.5t94 5.5h53q-2 -82 -3 -184.5t-1 -219.5v-344q0 -49 6.5 -86t16.5 -67q-23 -23 -86 -52q-10 -4 -18 -4 h-11q-29 0 -46 13.5t-28 31.5q-31 -23 -61.5 -38t-58.5 -25q-33 -10 -65 -16.5t-69 -6.5q-94 4 -152 29t-91 70t-45.5 108.5t-14.5 147.5l19 422q0 57 -7.5 100t-19.5 80q12 10 37 25.5t66 35.5q12 4 18 4h10q43 0 64.5 -24t27.5 -51z" />
<glyph unicode="v" horiz-adv-x="823" d="M383 416q14 -74 31 -129q4 23 11 51.5t15 56.5q16 63 31.5 134t34.5 137q10 35 18 69.5t19 63.5q12 41 22 81t21 74q16 10 28.5 14.5t34.5 4.5q16 0 44 -2t75 -8q10 -12 11 -19.5t1 -11.5q0 -18 -6 -42t-16 -59v3l-32 -107l-32 -106l-85 -282q-44 -146 -97 -306 q-18 -18 -44 -26.5t-48 -14.5q-6 0 -10 -2h4q-4 -2 -11 -2h-10q-33 0 -62.5 14t-37.5 37l-77 254l-99 317h2q-8 18 -24 66l-30 97l-29 92q-13 42 -16 53q10 33 53.5 47t139.5 14q16 -16 27.5 -38.5t17.5 -45.5l12 -43q6 -23 15 -49l21 -74l22 -80l28 -117q15 -59 27 -116z " />
<glyph unicode="w" horiz-adv-x="1263" d="M500 68q-2 -4 -3 -8.5t-3 -8.5l2 2q-8 -27 -16.5 -42t-30.5 -23q-10 -2 -40 -3t-87 -5q-20 16 -40 45.5t-26 54.5l-32 116l-37 135l-40 145l-38 145l-57 206q-22 78 -32 99q14 25 61.5 38t141.5 13q16 -12 25.5 -31.5t13.5 -38.5q27 -119 60 -250q10 -41 17 -81.5 t15 -75.5q8 -45 14.5 -73t10.5 -48l7 -36q3 -15 9 -36q10 39 23.5 98.5t30.5 124.5q4 18 17 69.5l27 110.5l25 109q12 51 17 70q4 10 4 16v8v19q2 2 23.5 9t48 12t54 8.5t42.5 -0.5q16 -16 23 -34t15 -50q16 -74 38 -162l44 -185q8 -35 14.5 -67.5t14.5 -63.5q6 -27 9 -39 t5 -18t3 -12t6 -21q20 74 40 167l42 196l32.5 140.5t24.5 117.5q2 2 2 14q4 12 10 21q12 10 22.5 11t22.5 1t33.5 -2t43.5 -5l38 -5t20 -4q6 -4 10 -11q6 -12 6 -20t-2 -17q-3 -14 -10 -36l-8 -21l2 2l-39 -137l-43 -158l-70 -259q-36 -132 -69 -236q-2 -4 -3 -8.5t-3 -8.5 l2 2q-6 -27 -14 -42t-31 -23q-10 -2 -41 -3t-86 -5q-20 16 -39.5 45.5t-28.5 54.5l-13 48l-13 48l-7 30q-3 13 -8 23l-38 168l-37 168q-18 -82 -43 -177l-47 -179z" />
<glyph unicode="x" horiz-adv-x="882" d="M840 8q-16 -6 -48 -9t-71 -5q-20 0 -48 3t-63 13q-8 12 -15 26.5t-17 29.5q-10 14 -21 31l-20 34l-60 106l-57 103l-2 -2l-77 -140q-42 -77 -103 -169l2 2q-14 -27 -36 -32t-75 -5q-25 0 -54.5 2t-60.5 6l25 68q35 59 76 119l84 128l56 90l58 93l-68 111l-75 122l-60 98 l-51 87l-10 26q14 8 54 21.5t71 13.5h76q23 -18 40 -42t36 -56h-2q14 -23 19 -29t4 -5t-3 5t-2 2h-2q10 -16 20.5 -36.5t22.5 -39.5l35 -60l31 -52q0 2 3 5t3 5l39 74q20 39 41 71l18 30l18 30q10 16 20 29l19 28q14 20 28.5 29.5t55.5 9.5q25 0 64 -5t78 -14 q-4 -6 -8.5 -17t-8.5 -15q-4 -6 -5 -11.5t-5 -11.5l-84 -128l-88 -136l-41 -65l-39 -60l84 -138l88 -143l57 -94l58 -92l10 -27z" />
<glyph unicode="y" horiz-adv-x="821" d="M203 979q16 0 35.5 -29.5t25.5 -58.5l22 -72l29 -98l33 -112l31 -109q14 -51 24.5 -100.5t20.5 -88.5l25 95q14 53 24 102l29 126q14 65 30 124l24 98l22 90q18 16 33.5 21.5t45.5 5.5h27q16 0 33 -2q10 0 23.5 -1t21.5 -1q14 -29 14 -51q0 -23 -10 -58q-20 -84 -50 -190 l-65 -224l-73 -237l-78 -234q-43 -109 -84 -181.5t-81 -115.5t-80 -61t-77 -18q-80 0 -121 22.5t-51 50.5q0 16 6 39l8 25q27 10 43.5 9t34.5 -1q20 0 42 2t48 12l-2 -2q18 8 38 40t38.5 75t32.5 93t24 97l-2 2q-16 20 -24 41t-19 56q-4 14 -18 60l-35 112l-45 144l-50 159 l-51 155l-46 134q12 31 50 43t124 12z" />
<glyph unicode="z" horiz-adv-x="759" d="M109 977q37 -8 76.5 -9t95.5 -1l411 -6q0 -4 1 -12.5t1 -12.5q2 -4 2 -11v-18q0 -14 -5 -32.5t-19 -47.5l-72 -135l-89 -163l-102 -182l-110 -189q41 -2 92 -2h101q41 0 79.5 2t71.5 5t55.5 7t30.5 6q0 -23 -1 -47.5t-5 -40.5q-12 -66 -51 -80q-35 -6 -84 -8t-146 -2 q-98 0 -203.5 1t-183.5 7q-8 10 -18 28.5t-14 41.5q2 16 6 27.5t14 27.5q16 29 36 59l40 64l167 281q87 145 158 278h-190q-12 0 -24.5 -1t-22.5 -1h-43q-63 0 -94 7t-31 30q6 59 19.5 90t41.5 39h9z" />
<glyph unicode="{" horiz-adv-x="686" d="M489 1395q-37 -10 -60 -26.5t-38.5 -37t-22 -40t-8.5 -31.5q-2 -14 0 -35t7 -35q10 -31 21 -60l22 -55q4 -8 6 -14l45 -116q23 -60 22 -116q0 -78 -31.5 -129t-103.5 -82q137 -61 137 -204q0 -20 -4 -39t-8 -35q-10 -47 -26.5 -97t-38.5 -102l-23 -69l-20 -64 q0 -4 -1.5 -5t-1.5 -5q-6 -23 -6 -45q0 -55 36 -96t102 -54q12 -4 43 -6l28 -6q29 -6 35 -18q0 -2 1 -4t1 -7q0 -12 -5 -24t-11 -25q-6 -8 -11.5 -20t-7.5 -19q-215 4 -309 74q-109 76 -108 213q0 61 23.5 129t51.5 133l24.5 70t22.5 72q0 2 1 4t1 4q4 16 6.5 31.5 t-1.5 31.5q-2 18 -7.5 35.5t-18.5 32t-39 25t-69 14.5q-45 4 -65 35q-18 29 -19 53q0 8 1 19.5t6 21.5q68 2 108.5 15t63 29.5t31 37t8.5 39.5q2 10 -0.5 28.5t-6.5 34.5q-23 74 -47 135q-2 4 -3 7t-3 8q-27 59 -47 117.5t-20 109.5q0 86 47 149.5t133 100.5 q41 16 104.5 28.5t132.5 16.5q4 -10 8.5 -23.5t8.5 -19.5q2 -4 2 -6t2 -6q10 -25 10 -29q0 -8 -6 -14q-4 -12 -29 -19h2q-16 -6 -43 -8q-8 -2 -17.5 -4t-17.5 -4z" />
<glyph unicode="|" horiz-adv-x="626" d="M414 -426q-12 -10 -27.5 -16.5t-37 -9.5t-54.5 -3h-82v2024q12 12 26.5 18t37 9t55.5 3h82v-2025z" />
<glyph unicode="}" horiz-adv-x="686" d="M303 1260q-2 12 -9 31.5t-21.5 40t-38 36.5t-60.5 27q-8 2 -17.5 4t-17.5 4l-24 3q-8 1 -19 5h2q-25 6 -28 19q-2 4 -4.5 7t-2.5 7t11 29q2 4 2 6t2 6q4 6 8 19.5t8 23.5q70 -4 133.5 -16.5t104.5 -28.5q86 -37 133 -100.5t47 -149.5q0 -51 -20.5 -109.5t-47.5 -117.5 q-2 -4 -3 -7.5t-3 -7.5q-16 -37 -26 -69l-21 -66q-4 -16 -6 -34.5t0 -28.5q0 -18 8 -39t30.5 -37.5t63.5 -29.5t109 -15q4 -10 5 -21.5t1 -19.5q0 -25 -18 -53q-20 -31 -66 -35q-84 -8 -107.5 -40t-25.5 -67q-4 -16 -2 -31.5t6 -31.5q0 -2 1 -4t1 -4q10 -35 22.5 -73 t24.5 -69q29 -63 52.5 -133t23.5 -129q0 -137 -108 -213q-96 -72 -310 -74q-2 6 -7 18.5t-11 20.5q-6 12 -11.5 24.5t-5.5 29.5q0 2 1 3t1 3q6 12 35 18l37 6q10 2 21.5 4t13.5 2q66 12 101.5 53.5t35.5 96.5q0 23 -6 45q0 4 -1 6t-1 4l-20 64l-23 69q-23 51 -39 101.5 t-27 97.5q-4 16 -8 34.5t-4 39.5q0 143 137 204q-72 31 -103.5 82.5t-31.5 128.5q0 55 23 116l45 116q2 4 3 8t3 6l21 55l22 60q4 14 6 35t0 35z" />
<glyph unicode="~" horiz-adv-x="1024" d="M131 377q-31 2 -52.5 6t-41.5 14q16 115 46 185.5t66.5 108.5t75.5 50.5t76 12.5q80 -4 141.5 -37t114.5 -80h-2q4 -4 12 -10t13 -11q39 -37 76.5 -65.5t70.5 -28.5q41 0 63.5 43t32.5 115q6 31 27 70q29 0 73 -11.5t66 -27.5q-12 -98 -34.5 -164t-55.5 -105t-75 -55 t-89 -16q-41 0 -79 14t-75.5 37.5t-73.5 52.5l-73 60q-82 70 -123 69q-16 0 -30.5 -7t-28.5 -29.5t-26.5 -62.5t-22.5 -104q-25 -25 -70 -24h-2z" />
<glyph unicode="&#xa1;" horiz-adv-x="415" d="M289 549q2 -39 3 -88t5 -107q4 -82 8 -173t7 -180l6 -170q3 -81 6 -144q-4 -35 -64.5 -46.5t-165.5 -11.5q-10 27 -17 57.5t-7 71.5q0 47 3 114t7 140l8 152q4 78 8 145q4 49 6 92t4 76q4 47 53.5 64.5t108.5 17.5zM199 741q-72 0 -93.5 30t-19.5 89q2 57 26.5 94 t98.5 37q63 0 89 -30.5t26 -96.5q0 -123 -127 -123z" />
<glyph unicode="&#xa2;" d="M639 1225q-2 -47 -3 -90t-5 -91q55 -10 98 -31.5t55 -45.5q0 -10 -5 -39t-19 -54q-27 -14 -51 -14q-23 0 -37 6q-35 14 -68 17q-10 2 -17 3t-12 1q-115 0 -168 -87t-53 -249q0 -94 16.5 -153.5t46 -93.5t68.5 -46t82 -12q45 0 96.5 15t104.5 42q0 -106 -23 -147 q0 -12 -20 -27q-23 -14 -57.5 -28.5t-87.5 -18.5q-2 -35 -3.5 -67.5t-3.5 -69.5q-4 -33 -21 -47.5t-56 -18.5q-41 -6 -111 -6l10 221q-45 12 -92 37t-85 75t-61.5 129t-23.5 200q0 127 31 216t77 147t101 90t104 48q2 16 2.5 30.5t2.5 31.5q2 16 2 34v33q4 33 22.5 46.5 t65.5 19.5q10 2 20 2h21q10 0 18 1t18 1z" />
<glyph unicode="&#xa3;" horiz-adv-x="1007" d="M715 686q-63 -6 -125 -13l-123 -14q8 -37 14 -89t6 -93v-20q0 -10 -2 -23q-4 -20 -4 -35q-12 -115 -88 -202q61 -12 134 -19.5t130 -7.5q23 0 58 1t75.5 3t86 6t88.5 13q4 -20 3 -48t-5 -47q-4 -41 -50 -69h5q-23 -18 -54 -27q-49 -10 -101 -15t-120 -5q-113 0 -252 14 t-295 43l2 125q68 37 108 105.5t50 160.5q2 10 2 19v18q0 39 -6 84t-16 86q-29 -4 -64 -6t-61 -6q-4 43 -1 85t13 54q14 10 29.5 14t31.5 6h15q-4 29 -8.5 73t-4.5 81q12 207 113 326q51 63 123 96t164 41q68 0 119 -11.5t87.5 -29t59 -36.5t31.5 -34q0 -35 -9.5 -61.5 t-23.5 -46.5q-23 -6 -45.5 1t-44.5 17q-12 8 -36 14.5t-52 10.5q-20 4 -45 5t-43 -3q-74 -10 -113 -81t-47 -183q-2 -10 -2 -20v-19q0 -27 4 -57l8 -58l173 17l171 18q4 -63 -5 -108.5t-58 -49.5z" />
<glyph unicode="&#xa5;" d="M156 573q16 10 30.5 13.5t30.5 5.5l145 16v2q-16 43 -42.5 101.5t-65.5 130.5l-57 113l-62 118l-65 127l-62 123q0 14 20.5 19.5t94.5 5.5h119q16 -41 51 -117l72 -156l70 -165l46 -101q59 135 124 267t124 267q23 8 41 12.5t41 4.5q12 0 39 -2t74 -6q4 -10 5 -19.5 t1 -13.5q0 -16 -6 -32l-15 -36l-2 -2q2 0 1 -3t-3 -5q-23 -53 -68 -138l-94 -171l-79 -142q-37 -69 -54 -110q-4 -8 -8 -22.5t-8 -26.5q53 4 109.5 10t107.5 10q4 -61 -5 -106t-61 -49q-43 -4 -80.5 -8.5t-80.5 -8.5v-190q0 -49 1 -90t1 -76v-94q-10 -10 -21.5 -17.5 t-33 -11.5t-56.5 -6t-90 -2q-20 49 -20 100v365q-53 -4 -114 -11.5t-110 -11.5q-4 43 0.5 83t14.5 56z" />
<glyph unicode="&#xa7;" horiz-adv-x="989" d="M422 1227q-4 -47 16.5 -74t44.5 -51l68 -62l61 -53l114 -97q56 -50 101 -107.5t73 -126t28 -150.5q0 -16 -1 -35.5t-5 -36.5q-8 -53 -41 -102t-103 -72q-6 -2 -14 -2q12 -27 19.5 -51.5t7.5 -50.5q0 -12 -1.5 -20.5t-3.5 -18.5v2q-4 -43 -20 -78t-40 -61.5t-51.5 -45 t-53.5 -30.5l2 2q-43 -23 -95.5 -34t-111.5 -11h-27q-49 2 -95 10t-75 18q-14 8 -19 24.5t-5 37.5q0 23 5 47.5t9 46.5q49 -18 113.5 -30.5t117.5 -12.5q72 0 120 33t48 98v14q0 8 -4 17q-4 25 -18.5 48.5t-36.5 45.5l-67 61l-70 62q-63 51 -127 108.5t-115 124t-84 141 t-33 165.5q0 74 22.5 133t53.5 100q23 29 49.5 42t44.5 15q12 0 19 -2q0 14 4 35q4 43 20.5 78t40 60.5t51 44t54.5 30.5l-2 -2q41 23 95 33t118 8q66 0 114.5 -17.5t77.5 -39.5q8 -8 7 -23.5t-9 -32t-18.5 -34t-18.5 -29.5q-53 18 -96 29.5t-90 11.5q-70 0 -119 -33.5 t-49 -99.5zM190 963q0 -74 37 -144.5t94.5 -135.5t124.5 -122l127 -106l93 -75q41 -34 57 -56l11 -16q5 -7 9 -15q16 39 29 94q8 53 -2 109.5t-33.5 108.5t-56.5 97.5t-68 75.5q-23 16 -46 36l-50 40q-63 47 -119.5 94t-89.5 88q-25 29 -39 61.5t-22 63.5q-23 -39 -39.5 -88 t-16.5 -110z" />
<glyph unicode="&#xa8;" horiz-adv-x="745" d="M96 1264q0 115 121 114q68 0 88.5 -27.5t18.5 -82.5q-2 -53 -26 -88t-93 -35q-59 0 -84 30t-25 89zM414 1264q0 115 121 114q68 0 88 -27.5t18 -82.5q-2 -53 -25.5 -88t-93.5 -35q-59 0 -83.5 30t-24.5 89z" />
<glyph unicode="&#xa9;" horiz-adv-x="1183" d="M61 874q0 129 39 231.5t111 173.5t170 107.5t219 36.5q119 0 215 -35.5t164 -104.5t104.5 -171t36.5 -235q0 -127 -38 -229.5t-107.5 -174.5t-166.5 -109.5t-216 -37.5q-121 0 -218.5 34.5t-167 104.5t-107.5 172t-38 237zM221 874q0 -203 99.5 -314t271.5 -111 q80 0 147.5 29.5t116.5 84.5t77 135t28 181q0 197 -96.5 311.5t-264.5 114.5q-84 0 -153.5 -29t-120 -83t-78 -133t-27.5 -179v-7zM791 1128q0 -12 -6.5 -32.5t-10.5 -30.5q-10 -4 -18 -8t-15 -4q-18 0 -32 8l2 -2q-23 8 -41 10q-10 2 -24 2h-28q-49 -4 -87.5 -49 t-38.5 -154q0 -27 6 -45q10 -80 46 -109.5t99 -29.5q25 0 61.5 10.5t59.5 18.5q10 -18 15 -35l7 -23q-4 -27 -26 -47q-18 -10 -53 -22.5t-86 -12.5q-133 0 -206 67t-73 224q0 86 23.5 146.5t63.5 98.5t93 54.5t111 16.5q59 0 102 -15.5t53 -31.5z" />
<glyph unicode="&#xaa;" horiz-adv-x="600" d="M133 1219q-4 6 -4 16q0 2 1 6t1 10q23 23 81 44.5t128 23.5h47q80 -6 110.5 -53t30.5 -133v-58q0 -35 -1 -71.5t-1 -71.5v-111q-2 -16 2 -24q6 -23 33 -17q-4 -29 -4 -44v-19q-8 -14 -28.5 -26.5t-55.5 -14.5q-25 0 -45 10t-33 25l-13 -8.5l-20 -12.5q-35 -14 -96 -14 q-68 0 -122 43t-54 135q0 61 24.5 100t60.5 63.5t76 35t71 14.5h36q12 0 12.5 1t10.5 -1v57q0 39 -6 59.5t-35 20.5t-62 -11l-63 -22q-10 -4 -23.5 -7t-33.5 -3q-14 14 -19.5 30.5t-7.5 27.5h2zM377 834q4 10 4 24v35v80h-6q-16 0 -37 -4q-41 -6 -68.5 -28.5t-27.5 -76.5 q0 -43 12 -59.5t35 -20.5h8q20 0 41.5 8.5t36.5 24.5q0 4 1 7t1 7v3z" />
<glyph unicode="&#xab;" horiz-adv-x="925" d="M57 506q16 27 49 75l72 101l56 81l56 79l45 65l30 45q23 -2 44 -14t37.5 -27.5t25.5 -30t9 -20.5q0 -23 -26.5 -72t-62.5 -105l-70 -108l-52 -75l-6 -8q12 -16 47 -68l72 -110q37 -58 65.5 -113.5t28.5 -79.5q0 -8 -9 -23.5t-26.5 -31t-39 -27.5t-46.5 -14l-53 79 l-76 112l-83 120l-74 106q-16 33 -17 60zM422 504l72 99l98 134l89 120l60 85q20 -4 41 -15.5t37.5 -26.5t25.5 -29.5t9 -22.5q0 -23 -29.5 -75t-67.5 -109.5t-75 -106.5t-49 -68l48 -65q36 -49 73 -105.5t66.5 -109.5t29.5 -76q0 -8 -9.5 -23.5t-25.5 -31t-37.5 -28.5 t-46.5 -15q-12 23 -36 56l-51 73l-58 79l-58 76l-45 61q-23 30 -41 56q-14 18 -19 35.5t-5 28.5z" />
<glyph unicode="&#xac;" horiz-adv-x="1019" d="M862 793l82 -15v-446q0 -43 -6 -68q-10 -25 -50 -30t-83 -9q-6 0 -23.5 -1t-23.5 -1v410h-699q0 51 11.5 91t40.5 69h751z" />
<glyph unicode="&#xad;" horiz-adv-x="598" d="M453 463q-35 -6 -76 -11l-86 -11q-45 -5 -89 -8t-81 -3q-16 0 -30.5 2t-35.5 10q8 78 22.5 116t47.5 40q84 8 182.5 19.5t169.5 21.5q14 -2 30.5 -8t33.5 -15q-4 -61 -24.5 -104t-65.5 -49h2z" />
<glyph unicode="&#xae;" horiz-adv-x="811" d="M51 1069q0 174 96.5 269.5t264.5 95.5t258 -90.5t90 -272.5q0 -170 -94.5 -269.5t-262.5 -99.5q-170 0 -261 90.5t-91 276.5zM348 1278h32q15 0 28 -2q70 -4 105.5 -36t35.5 -87q0 -35 -16.5 -60.5t-40.5 -41.5q16 -23 39.5 -64t35.5 -94v-8q53 70 54 188 q0 123 -54.5 189.5t-156.5 66.5q-98 0 -159 -63.5t-61 -196.5q0 -135 56.5 -197.5t154.5 -62.5q92 0 152 61q-10 -4 -21 -4h-24q-20 0 -23 2q-12 0 -39 11q-8 55 -21 84.5t-28 48.5h-12q-2 0 -2 2v-129q-16 -12 -37.5 -14.5t-71.5 -2.5l2 394q4 4 12.5 8t24.5 4q2 0 2 1t7 1 q6 2 13 2h13zM436 1155q0 23 -10 36t-29 13q-4 0 -7 -1t-7 -1v-108h4q10 0 29 6v-2q20 10 20 57z" />
<glyph unicode="&#xaf;" horiz-adv-x="901" d="M373 1346h130q65 0 113 2l23 -10l23 -9q-4 -55 -20.5 -85t-51.5 -30q-33 -2 -71 -3t-79 -1q-47 0 -93 2t-85 7q-12 2 -22.5 5t-22.5 7q8 70 18.5 93.5t32.5 21.5h105z" />
<glyph unicode="&#xb0;" horiz-adv-x="727" d="M174 1313q0 43 16.5 82t46 68.5t70.5 46t90 16.5t90 -17.5t70 -47t44 -67.5t15 -79q0 -92 -63.5 -152.5t-159.5 -60.5q-45 0 -85 15.5t-69.5 43t-47 66.5t-17.5 86zM315 1315q0 -43 23.5 -70.5t58.5 -27.5q37 0 58.5 28.5t21.5 67.5q0 37 -20.5 68.5t-61.5 31.5 q-37 0 -58.5 -30.5t-21.5 -67.5z" />
<glyph unicode="&#xb1;" horiz-adv-x="598" d="M213 616h-168q0 80 13.5 118t54.5 38h100q0 35 -1 71t-3 64q18 20 52 24.5t93 6.5q25 -10 32 -28.5t7 -53.5v-84h168q0 -80 -11 -118t-58 -38h-99v-100q2 -35 -14.5 -53.5t-42 -25.5t-58 -8t-65.5 -1v188zM55 178q8 78 23.5 116t46.5 40l182 18q98 10 170 21q14 -2 31 -8 l33 -13q-4 -61 -24.5 -103t-63.5 -50q-35 -6 -77 -12l-86 -10q-44 -5 -88 -8t-81 -3q-16 0 -29.5 2t-36.5 10z" />
<glyph unicode="&#xb2;" d="M133 967q-16 0 -27.5 15t-17.5 34.5t-9 39t-3 27.5q18 33 55 59.5t88 47t112.5 32t127.5 11.5q94 0 159.5 -24.5t104.5 -67.5t56.5 -101.5t17.5 -124.5q0 -14 -1 -27.5t-3 -25.5q-10 -72 -46 -148.5t-90 -150.5q-29 -41 -62 -82l-75 -90l-82 -97l-98 -126q63 -2 127 -2 h135q43 0 86 2t78 4q23 2 50 2h38q-6 -72 -27.5 -117t-50.5 -49q-37 -4 -92 -7t-127 -3q-135 0 -260 1t-223 7q-14 35 -17 53q4 29 13.5 52.5t31.5 58.5l103 130l94 114l104 132q49 65 86 124t57.5 114.5t20.5 106.5q0 168 -155 168q-72 0 -140.5 -26.5t-105.5 -51.5h2z" />
<glyph unicode="&#xb3;" d="M721 799q-23 -35 -59.5 -73t-92.5 -77q125 -29 195 -108.5t70 -206.5q0 -113 -39 -200t-108 -145.5t-162 -89t-199 -30.5q-86 0 -139.5 15.5t-75.5 35.5h2q-23 20 -30 43t-7 45q0 35 16 90q47 -29 105.5 -46t117.5 -17q70 0 125.5 22.5t92 62.5t56 94t17.5 116q0 4 -1 9 t-1 9q0 16 -2 23q-10 86 -83 123.5t-181 37.5q-16 0 -41 -1t-51 -5q0 23 -2 27q-4 12 -4 22q4 23 11 43.5t17 36.5q51 20 99.5 47t86.5 61t60.5 74t22.5 87q0 53 -30 95t-108 42q-66 0 -123 -19.5t-102 -52.5q-14 -10 -31 -10q-18 0 -32 20q-10 20 -14.5 44t-4.5 42v11 q23 53 119 95t233 42q96 0 159 -25.5t99.5 -65.5t51 -86t14.5 -89q0 -45 -12 -89t-35 -79z" />
<glyph unicode="&#xb4;" horiz-adv-x="686" d="M440 1485q18 0 40 -10.5t40.5 -26.5t30.5 -34.5t12 -35.5q-6 -10 -12 -15t-16 -15l-62 -62l-66 -64l-64 -62l-50 -50q-33 8 -63.5 33.5t-30.5 54.5v5q0 3 4 14l59 80l70 88q35 42 64.5 71t43.5 29z" />
<glyph unicode="&#xb5;" horiz-adv-x="952" d="M821 225q0 -49 7.5 -86t17.5 -67q-23 -23 -86 -52q-10 -4 -18 -4h-11q-29 0 -46 13.5t-28 31.5q-31 -23 -62.5 -38t-59.5 -25q-31 -10 -63 -16.5t-69 -6.5q-35 2 -64.5 5.5t-51.5 9.5v-314q-10 -29 -27.5 -48t-54.5 -19h-12q-6 0 -17 4q-37 16 -62.5 30.5t-35.5 24.5 q10 33 17 69t7 85v536l-2 306q0 88 -1 151.5t-3 118.5q18 23 63.5 31t139.5 8q10 -37 14 -82t4 -125l-2 -410q0 -66 9.5 -106.5t28 -64t44 -32t56.5 -8.5q45 -4 88 15.5t67 48.5v639q0 35 4 56.5t21 41.5q10 8 20.5 13.5t25.5 8.5t37.5 4t57.5 1h51q-2 -82 -3 -184.5 t-1 -219.5v-344z" />
<glyph unicode="&#xb6;" horiz-adv-x="1044" d="M694 -125q-49 -37 -97 -50t-95 -13q-37 0 -69 5t-64 11q-39 8 -54 41l-11 40q-5 17 -7 28q78 -16 111 -17q29 0 56.5 5t55.5 16q78 33 123 128t45 261v145q-12 -4 -18 -4l-108 -20q-54 -10 -113 -15q-82 0 -152 26.5t-121 79t-79.5 130.5t-28.5 178q0 117 38.5 204 t104 145t153 87t183.5 29h340q14 0 25.5 -7.5t11.5 -17.5q0 -16 -6 -22l-52 -43q-4 -4 -11 -7.5t-15 -5.5v-749q0 -29 -1 -54.5t-1 -50.5v-90q-4 -141 -37 -232t-105 -161h-2z" />
<glyph unicode="&#xb7;" horiz-adv-x="413" d="M74 524q0 127 139 127q80 0 103.5 -30.5t21.5 -92.5q-2 -59 -28.5 -97t-110.5 -38q-72 0 -98.5 32.5t-26.5 98.5z" />
<glyph unicode="&#xb8;" horiz-adv-x="563" d="M193 -59q31 2 64.5 1t64.5 -10q66 -16 109.5 -57t43.5 -100q0 -53 -27.5 -90t-69.5 -61.5t-89 -38t-86 -19.5q-23 4 -35 26.5t-12 36.5q0 20 26 27q86 29 123 53.5t37 65.5q0 20 -16.5 35.5t-42 24.5t-56 13.5t-59.5 4.5l9.5 45t15.5 43z" />
<glyph unicode="&#xb9;" horiz-adv-x="804" d="M631 1208q-2 -84 -3 -211t-3 -269t-3 -288.5t-1 -271.5q14 -4 26 -9t29 -9q29 -10 53.5 -20.5t24.5 -20.5q0 -53 -4.5 -73t-26.5 -30q-35 -6 -57 -6q-6 0 -11.5 -1t-9.5 -1q-45 0 -97 -1l-105 -2q-52 -1 -102 -1h-89v51q0 14 -1 27.5t-1 27.5q0 23 30.5 34t71.5 24 q10 4 21.5 7t23.5 7q4 184 6.5 399t6.5 455l-68 -18l-78 -19.5l-69.5 -17.5t-44.5 -10q-10 20 -18.5 40.5t-10.5 38.5q10 16 24.5 34t32.5 36l110 38l111 37l98.5 30.5t69.5 19.5q16 -4 34 -11.5t30 -15.5z" />
<glyph unicode="&#xba;" horiz-adv-x="657" d="M616 1004q0 -164 -73.5 -247t-190.5 -83q-127 0 -194.5 75.5t-67.5 245.5q0 168 74 247t192 79q260 0 260 -317zM248 1001q0 -127 30.5 -175t77.5 -48q43 0 74 48t31 173q0 119 -29 169.5t-80 50.5q-43 0 -73.5 -50.5t-30.5 -167.5z" />
<glyph unicode="&#xbb;" horiz-adv-x="923" d="M866 473l-65 -95l-92 -132l-49 -69l-45 -64l-38 -56l-26 -39q-6 2 -23.5 11.5t-38 23t-36 31.5t-15.5 37q0 14 14.5 45t36 68.5t48.5 77.5l51 76l44 64q19 28 27 37q-2 4 -5 6.5t-7 6.5h2l-52 78q-34 51 -66.5 106t-57 103.5t-24.5 72.5q0 18 15 34.5t35.5 29t40 19.5 t27.5 7q14 -27 49 -76l76 -111l84 -121l76 -105q18 -35 18 -60zM502 471q-23 -35 -67 -92l-91 -123l-51 -68l-50 -65l-43 -56q-19 -26 -32 -40l-27 15q-16 9 -32.5 23.5t-28.5 32t-12 37.5q0 25 29.5 76t68.5 106l76 105l51 67q-4 8 -12.5 17.5t-18.5 25.5l-54 81 q-32 46 -60.5 92.5t-49 86t-20.5 58.5q0 18 14 35.5t33.5 31t38 21.5t26.5 12q18 -31 55 -84l79 -113l88 -121l80 -108q14 -25 14 -47z" />
<glyph unicode="&#xbc;" horiz-adv-x="2785" d="M2357 225q0 18 1 33.5t1 36.5q-115 0 -229.5 4t-186.5 12q-31 29 -45 59.5t-18 59.5q16 39 47.5 102.5t71.5 136.5l86 150q46 78 92.5 147.5t88.5 125t74 84.5q27 27 66 42t74 21q25 0 44 -3t33 -7q4 0 12.5 -1t10.5 -1q0 -47 -1 -101.5t-1 -103.5v-195v-188 q0 -96 -2 -190q37 4 75 5t60 1q4 -8 5 -13.5t3 -9.5q8 -16 8 -33q-12 -33 -33.5 -59.5t-64.5 -38.5q-12 -4 -23 -4h-24h-6v-227q0 -31 -12.5 -51.5t-55.5 -28.5q-23 -4 -64.5 -5t-86.5 -1v241zM2367 721q0 23 1 43t1 41v33v23q0 11 1 22.5t1 34.5q-41 -53 -80 -113 t-73.5 -121t-64.5 -120.5t-52 -110.5q111 -6 258 -7q4 55 5 116t3 116v43zM942 -80q-6 6 -10 8t-6 4q-18 10 -40 26.5t-26 33.5q25 47 80 142l126 217l152 259l158 269l143 242l115 194q10 16 22.5 28.5t22.5 12.5q4 0 18.5 -5t27.5 -14q23 -12 39 -28.5t20 -38.5l-75 -130 l-122 -209l-151 -258l-164 -276l-133 -226l-119 -202q-33 -53 -57 -53q-17 0 -21 4zM631 1208q-2 -84 -3 -211t-3 -269t-3 -288.5t-1 -271.5q14 -4 26 -9t29 -9q29 -10 53.5 -20.5t24.5 -20.5q0 -53 -4.5 -73t-26.5 -30q-35 -6 -57 -6q-6 0 -11.5 -1t-9.5 -1q-45 0 -97 -1 l-105 -2q-52 -1 -102 -1h-89v51q0 14 -1 27.5t-1 27.5q0 23 30.5 34t71.5 24q10 4 21.5 7t23.5 7q4 184 6.5 399t6.5 455l-68 -18l-78 -19.5l-69.5 -17.5t-44.5 -10q-10 20 -18.5 40.5t-10.5 38.5q10 16 24.5 34t32.5 36l110 38l111 37l98.5 30.5t69.5 19.5q16 -4 34 -11.5 t30 -15.5z" />
<glyph unicode="&#xbd;" horiz-adv-x="2785" d="M1988 967q-16 0 -27.5 15t-17.5 34.5t-9 39t-3 27.5q18 33 55 59.5t88 47t112.5 32t127.5 11.5q94 0 159.5 -24.5t104.5 -67.5t56.5 -101.5t17.5 -124.5q0 -14 -1 -27.5t-3 -25.5q-10 -72 -46 -148.5t-90 -150.5q-29 -41 -62 -82l-75 -90l-82 -97l-98 -126q63 -2 127 -2 h135q43 0 86 2t78 4q23 2 50 2h38q-6 -72 -27.5 -117t-50.5 -49q-37 -4 -92 -7t-127 -3q-135 0 -260 1t-223 7q-14 35 -17 53q4 29 13.5 52.5t31.5 58.5l103 130l94 114l104 132q49 65 86 124t57.5 114.5t20.5 106.5q0 168 -155 168q-72 0 -140.5 -26.5t-105.5 -51.5h2z M942 -80q-6 6 -10 8t-6 4q-18 10 -40 26.5t-26 33.5q25 47 80 142l126 217l152 259l158 269l143 242l115 194q10 16 22.5 28.5t22.5 12.5q4 0 18.5 -5t27.5 -14q23 -12 39 -28.5t20 -38.5l-75 -130l-122 -209l-151 -258l-164 -276l-133 -226l-119 -202q-33 -53 -57 -53 q-17 0 -21 4zM631 1208q-2 -84 -3 -211t-3 -269t-3 -288.5t-1 -271.5q14 -4 26 -9t29 -9q29 -10 53.5 -20.5t24.5 -20.5q0 -53 -4.5 -73t-26.5 -30q-35 -6 -57 -6q-6 0 -11.5 -1t-9.5 -1q-45 0 -97 -1l-105 -2q-52 -1 -102 -1h-89v51q0 14 -1 27.5t-1 27.5q0 23 30.5 34 t71.5 24q10 4 21.5 7t23.5 7q4 184 6.5 399t6.5 455l-68 -18l-78 -19.5l-69.5 -17.5t-44.5 -10q-10 20 -18.5 40.5t-10.5 38.5q10 16 24.5 34t32.5 36l110 38l111 37l98.5 30.5t69.5 19.5q16 -4 34 -11.5t30 -15.5z" />
<glyph unicode="&#xbe;" horiz-adv-x="2910" d="M2482 225q0 18 1 33.5t1 36.5q-115 0 -229.5 4t-186.5 12q-31 29 -45 59.5t-18 59.5q16 39 47.5 102.5t71.5 136.5l86 150q46 78 92.5 147.5t88.5 125t74 84.5q27 27 66 42t74 21q25 0 44 -3t33 -7q4 0 12.5 -1t10.5 -1q0 -47 -1 -101.5t-1 -103.5v-195v-188 q0 -96 -2 -190q37 4 75 5t60 1q4 -8 5 -13.5t3 -9.5q8 -16 8 -33q-12 -33 -33.5 -59.5t-64.5 -38.5q-12 -4 -23 -4h-24h-6v-227q0 -31 -12.5 -51.5t-55.5 -28.5q-23 -4 -64.5 -5t-86.5 -1v241zM2492 721q0 23 1 43t1 41v33v23q0 11 1 22.5t1 34.5q-41 -53 -80 -113 t-73.5 -121t-64.5 -120.5t-52 -110.5q111 -6 258 -7q4 55 5 116t3 116v43zM1067 -80q-6 6 -10 8t-6 4q-18 10 -40 26.5t-26 33.5q25 47 80 142l126 217l152 259l158 269l143 242l115 194q10 16 22.5 28.5t22.5 12.5q4 0 18.5 -5t27.5 -14q23 -12 39 -28.5t20 -38.5l-75 -130 l-122 -209l-151 -258l-164 -276l-133 -226l-119 -202q-33 -53 -57 -53q-17 0 -21 4zM721 799q-23 -35 -59.5 -73t-92.5 -77q125 -29 195 -108.5t70 -206.5q0 -113 -39 -200t-108 -145.5t-162 -89t-199 -30.5q-86 0 -139.5 15.5t-75.5 35.5h2q-23 20 -30 43t-7 45q0 35 16 90 q47 -29 105.5 -46t117.5 -17q70 0 125.5 22.5t92 62.5t56 94t17.5 116q0 4 -1 9t-1 9q0 16 -2 23q-10 86 -83 123.5t-181 37.5q-16 0 -41 -1t-51 -5q0 23 -2 27q-4 12 -4 22q4 23 11 43.5t17 36.5q51 20 99.5 47t86.5 61t60.5 74t22.5 87q0 53 -30 95t-108 42 q-66 0 -123 -19.5t-102 -52.5q-14 -10 -31 -10q-18 0 -32 20q-10 20 -14.5 44t-4.5 42v11q23 53 119 95t233 42q96 0 159 -25.5t99.5 -65.5t51 -86t14.5 -89q0 -45 -12 -89t-35 -79z" />
<glyph unicode="&#xbf;" horiz-adv-x="671" d="M176 233q96 125 96 209q0 18 -3 37t-7 33q-2 10 -3 20.5t-1 20.5q10 16 38 24.5t54 8.5q35 0 68 -20.5t45 -63.5q10 -45 10 -84q0 -59 -27 -121q-16 -35 -37 -67l-44 -66l-9 -12l-8 -13q-35 -49 -64.5 -98t-29.5 -109q0 -66 34 -95.5t85 -29.5q33 0 70.5 12.5t84.5 41.5 q29 -4 52.5 -32t23.5 -87q-16 -29 -48 -48.5t-71 -33.5t-82 -20.5t-81 -6.5q-80 0 -135.5 20.5t-89.5 57.5t-49 88t-15 111q0 100 43 175.5t100 147.5zM342 750q-72 0 -93.5 29.5t-19.5 88.5q2 57 26 94t99 37q63 0 89 -30.5t26 -96.5q0 -122 -127 -122z" />
<glyph unicode="&#xc0;" horiz-adv-x="1110" d="M840 33l-24 70l-21 71l-28 90l-32 105h-389l-63 -188l-54 -154q-6 -16 -21 -25.5t-58 -9.5q-23 0 -65 5t-77 13l8 44q4 22 11 36l86 253l102 290l132 368l102 302q6 23 13 37t25 14q2 0 11 4q6 2 12 3t16 1q16 2 35 2h29q33 -6 55 -31l72 -217l76 -235l36 -111l42 -127 l42 -122l33 -95h-2l56 -158q26 -72 44 -133l15.5 -52.5t15.5 -47.5l2 -4q0 -8 -12 -21q-23 -8 -61.5 -13t-67.5 -5q-23 0 -43.5 7t-48.5 30zM598 1491q-14 4 -55 26.5t-88 51.5l-82 47q-41 25 -76 41q-23 12 -33 26q0 20 10 41q6 14 20.5 31t31.5 23q4 14 16 24t31 10 q12 0 46 -19t75 -49l83 -63q42 -33 70 -59q10 -10 19.5 -20.5t13.5 -24.5q0 -8 -8 -21.5t-18.5 -26.5t-21.5 -24.5t-20 -13.5h-14zM399 532h285q-8 23 -15 49l-14 48q-12 41 -22 79l-21 74l-26 80q-10 31 -16.5 53.5l-12.5 42t-12 46.5l-49 -159l-58 -186l2 3z" />
<glyph unicode="&#xc1;" horiz-adv-x="1110" d="M840 33l-24 70l-21 71l-28 90l-32 105h-389l-63 -188l-54 -154q-6 -16 -21 -25.5t-58 -9.5q-23 0 -65 5t-77 13l8 44q4 22 11 36l86 253l102 290l132 368l102 302q6 23 13 37t25 14q2 0 11 4q6 2 12 3t16 1q16 2 35 2h29q33 -6 55 -31l72 -217l76 -235l36 -111l42 -127 l42 -122l33 -95h-2l56 -158q26 -72 44 -133l15.5 -52.5t15.5 -47.5l2 -4q0 -8 -12 -21q-23 -8 -61.5 -13t-67.5 -5q-23 0 -43.5 7t-48.5 30zM399 532h285q-8 23 -15 49l-14 48q-12 41 -22 79l-21 74l-26 80q-10 31 -16.5 53.5l-12.5 42t-12 46.5l-49 -159l-58 -186l2 3z M483 1477q-10 2 -19 14t-16.5 25.5t-11.5 25.5t-4 17l17 20q8 10 20 20q33 29 75 61t82 57.5t72.5 43t44.5 17.5q14 -2 27.5 -14.5t24 -30t17.5 -37t11 -33.5q0 -18 -28 -33q-37 -16 -80 -39l-86 -44l-81 -40z" />
<glyph unicode="&#xc2;" horiz-adv-x="1110" d="M840 33l-24 70l-21 71l-28 90l-32 105h-389l-63 -188l-54 -154q-6 -16 -21 -25.5t-58 -9.5q-23 0 -65 5t-77 13l8 44q4 22 11 36l86 253l102 290l132 368l102 302q6 23 13 37t25 14q2 0 11 4q6 2 12 3t16 1q16 2 35 2h29q33 -6 55 -31l72 -217l76 -235l36 -111l42 -127 l42 -122l33 -95h-2l56 -158q26 -72 44 -133l15.5 -52.5t15.5 -47.5l2 -4q0 -8 -12 -21q-23 -8 -61.5 -13t-67.5 -5q-23 0 -43.5 7t-48.5 30zM580 1772q16 -12 42 -35l55 -48q30 -26 57 -54l50 -50l22 -21l19 -20q-6 -14 -17 -30.5t-24.5 -30t-29 -21.5t-27.5 -8 q-16 0 -31.5 5t-27.5 16h2q-35 25 -56 47l-41 43l-24 24q-31 -35 -67 -67.5t-60 -51.5h2q-4 -4 -25 -12q-4 -2 -14 -2h-8q-33 10 -57.5 31.5t-32.5 40.5l40 44l54 58l58 62l53 55q10 12 35.5 19.5t39.5 7.5zM399 532h285q-8 23 -15 49l-14 48q-12 41 -22 79l-21 74l-26 80 q-10 31 -16.5 53.5l-12.5 42t-12 46.5l-49 -159l-58 -186l2 3z" />
<glyph unicode="&#xc3;" horiz-adv-x="1110" d="M840 33l-24 70l-21 71l-28 90l-32 105h-389l-63 -188l-54 -154q-6 -16 -21 -25.5t-58 -9.5q-23 0 -65 5t-77 13l8 44q4 22 11 36l86 253l102 290l132 368l102 302q6 23 13 37t25 14q2 0 11 4q6 2 12 3t16 1q16 2 35 2h29q33 -6 55 -31l72 -217l76 -235l36 -111l42 -127 l42 -122l33 -95h-2l56 -158q26 -72 44 -133l15.5 -52.5t15.5 -47.5l2 -4q0 -8 -12 -21q-23 -8 -61.5 -13t-67.5 -5q-23 0 -43.5 7t-48.5 30zM399 532h285q-8 23 -15 49l-14 48q-12 41 -22 79l-21 74l-26 80q-10 31 -16.5 53.5l-12.5 42t-12 46.5l-49 -159l-58 -186l2 3z M455 1604q-47 -10 -76 -78q-12 -23 -23 -23q-12 0 -26.5 7.5t-26.5 16.5t-20 17l-11 10q31 92 78 142.5t123 50.5q43 0 70 -25l55 -53q14 -14 26.5 -23.5t26.5 -9.5q33 0 50.5 21.5t27.5 58.5q8 20 25 21q10 0 21 -8.5t21.5 -18.5t17.5 -20.5t9 -14.5q-4 -31 -19.5 -63.5 t-39 -59t-56 -44t-71.5 -17.5q-51 0 -75.5 27.5t-53.5 56.5q-16 16 -26.5 22.5t-26.5 6.5z" />
<glyph unicode="&#xc4;" horiz-adv-x="1110" d="M840 33l-24 70l-21 71l-28 90l-32 105h-389l-63 -188l-54 -154q-6 -16 -21 -25.5t-58 -9.5q-23 0 -65 5t-77 13l8 44q4 22 11 36l86 253l102 290l132 368l102 302q6 23 13 37t25 14q2 0 11 4q6 2 12 3t16 1q16 2 35 2h29q33 -6 55 -31l72 -217l76 -235l36 -111l42 -127 l42 -122l33 -95h-2l56 -158q26 -72 44 -133l15.5 -52.5t15.5 -47.5l2 -4q0 -8 -12 -21q-23 -8 -61.5 -13t-67.5 -5q-23 0 -43.5 7t-48.5 30zM399 532h285q-8 23 -15 49l-14 48q-12 41 -22 79l-21 74l-26 80q-10 31 -16.5 53.5l-12.5 42t-12 46.5l-49 -159l-58 -186l2 3z M287 1622q0 106 102 107q57 0 73.5 -26t14.5 -77t-21.5 -83t-78.5 -32q-49 0 -69.5 27t-20.5 84zM629 1622q0 106 102 107q57 0 73.5 -26t14.5 -77t-21.5 -83t-78.5 -32q-49 0 -69.5 27t-20.5 84z" />
<glyph unicode="&#xc5;" horiz-adv-x="1110" d="M840 33l-24 70l-21 71l-28 90l-32 105h-389l-63 -188l-54 -154q-6 -16 -21 -25.5t-58 -9.5q-23 0 -65 5t-77 13l8 44q4 22 11 36l86 253l102 290l132 368l102 302q6 23 13 37t25 14q2 0 11 4q6 2 12 3t16 1q16 2 35 2h29q33 -6 55 -31l72 -217l76 -235l36 -111l42 -127 l42 -122l33 -95h-2l56 -158q26 -72 44 -133l15.5 -52.5t15.5 -47.5l2 -4q0 -8 -12 -21q-23 -8 -61.5 -13t-67.5 -5q-23 0 -43.5 7t-48.5 30zM328 1655q0 43 16 82t45 68.5t70 46t90 16.5t88 -17.5t67.5 -46t44 -66.5t15.5 -79q0 -90 -62.5 -148.5t-160.5 -58.5 q-43 0 -82 14.5t-68 41t-46 64.5t-17 83zM399 532h285q-8 23 -15 49l-14 48q-12 41 -22 79l-21 74l-26 80q-10 31 -16.5 53.5l-12.5 42t-12 46.5l-49 -159l-58 -186l2 3zM467 1657q0 -41 22.5 -68.5t57.5 -27.5q39 0 59.5 29.5t20.5 66.5q0 39 -20.5 69.5t-61.5 30.5 q-35 0 -56.5 -30.5t-21.5 -69.5z" />
<glyph unicode="&#xc6;" horiz-adv-x="1460" d="M954 629l13 -235q6 -116 10 -232q33 -4 74 -4h88h144q81 0 132 2q-4 -86 -22.5 -119t-59.5 -43q-41 -2 -97 -3t-134 -1q-102 0 -188.5 4t-135.5 8q-2 10 -3 23.5t-3 23.5t-4 17.5t-4 17.5l-12 188q-6 92 -11 189h-305l-70 -155l-53 -116l-39 -88l-30 -67l-5 -10 q-3 -6 -1 -4q-8 -16 -21.5 -27.5t-54.5 -11.5q-27 0 -42.5 3t-31.5 7l-32 12l-38 15l113 246l133 292l81 179l83 183l79 171l66 145l6 10q3 6 3 8l15 35q7 16 13 33q27 12 66 21.5t74 11.5h608q-2 -78 -13.5 -109.5t-39.5 -44.5q-33 -4 -77 -7t-98 -3h-198q2 -49 2 -100.5 t4 -100.5t6 -99l4 -103h381q-10 -96 -29.5 -129t-64.5 -33h-281zM645 942l-78 -169l-65 -148h231q-2 70 -4 127l-4 113l-4 115q-2 58 -4 128l-35 -79z" />
<glyph unicode="&#xc7;" horiz-adv-x="972" d="M629 1386q68 0 120 -11t88.5 -28.5t58.5 -37t30 -33.5q0 -35 -9.5 -62.5t-25.5 -48.5h-23q-14 -2 -23 2t-26 13q-4 2 -7 3t-7 3v-2q-23 10 -44.5 17t-45.5 11q-12 2 -28.5 3.5t-33.5 1.5h-20q-10 0 -21 -3q-66 -6 -125 -39.5t-104 -101t-71.5 -171t-26.5 -247.5 q0 -262 92 -382.5t260 -120.5q35 0 70.5 6t69.5 16t62.5 21.5t47.5 23.5q25 -41 28 -84q-6 -59 -53 -98q-29 -27 -97.5 -47.5t-156.5 -20.5q-127 0 -229.5 34t-174 112t-110.5 208t-39 322q0 385 181 584q86 92 185 124.5t208 32.5zM471 -59q31 2 64.5 1t64.5 -10 q66 -16 110 -57t44 -100q0 -53 -28 -90t-70 -61.5t-89 -38t-86 -19.5q-23 4 -35 26.5t-12 36.5q0 20 27 27q86 29 123 53.5t37 65.5q0 20 -16.5 35.5t-42 24.5t-56.5 13.5t-60 4.5l9.5 45t15.5 43z" />
<glyph unicode="&#xc8;" horiz-adv-x="808" d="M326 162q29 -4 68 -4h81h143q82 0 146 2q-10 -86 -27.5 -119t-58.5 -43q-39 -2 -97.5 -3t-144.5 -1q-92 0 -173 3t-140 9q-10 47 -17 88v971v131q0 66 -4 127q4 2 13.5 5t19.5 7l25 8q10 4 22.5 8.5t42.5 6.5h510q-2 -41 -6 -68.5t-10 -44t-15.5 -26t-23.5 -15.5 q-45 -8 -91 -9t-104 -1h-159v-393h376q-6 -55 -13 -87t-18.5 -49.5t-27.5 -22.5t-41 -5h-276v-475zM498 1485q-16 6 -59 29l-91 53l-86 49q-45 27 -80 43q-12 8 -18 20q0 6 3 17.5t7 21.5q6 16 20.5 31.5t28.5 22.5q14 35 49 34q12 0 46 -19.5t75 -48.5l83 -63 q42 -33 71 -59h-2q25 -23 35 -39q0 -6 -7.5 -20.5t-17.5 -30t-22.5 -27.5t-22.5 -14h-12z" />
<glyph unicode="&#xc9;" horiz-adv-x="808" d="M326 162q29 -4 68 -4h81h143q82 0 146 2q-10 -86 -27.5 -119t-58.5 -43q-39 -2 -97.5 -3t-144.5 -1q-92 0 -173 3t-140 9q-10 47 -17 88v971v131q0 66 -4 127q4 2 13.5 5t19.5 7l25 8q10 4 22.5 8.5t42.5 6.5h510q-2 -41 -6 -68.5t-10 -44t-15.5 -26t-23.5 -15.5 q-45 -8 -91 -9t-104 -1h-159v-393h376q-6 -55 -13 -87t-18.5 -49.5t-27.5 -22.5t-41 -5h-276v-475zM381 1477q-10 2 -19.5 14t-16.5 25.5t-11 25.5t-4 17l16 20q8 10 21 20q33 29 74.5 61t81.5 57.5t73 43t45 17.5q14 -2 27.5 -14.5t23.5 -30t17.5 -37t11.5 -33.5 q0 -18 -29 -33q-37 -16 -80 -39l-86 -44l-81 -40z" />
<glyph unicode="&#xca;" horiz-adv-x="808" d="M326 162q29 -4 68 -4h81h143q82 0 146 2q-10 -86 -27.5 -119t-58.5 -43q-39 -2 -97.5 -3t-144.5 -1q-92 0 -173 3t-140 9q-10 47 -17 88v971v131q0 66 -4 127q4 2 13.5 5t19.5 7l25 8q10 4 22.5 8.5t42.5 6.5h510q-2 -41 -6 -68.5t-10 -44t-15.5 -26t-23.5 -15.5 q-45 -8 -91 -9t-104 -1h-159v-393h376q-6 -55 -13 -87t-18.5 -49.5t-27.5 -22.5t-41 -5h-276v-475zM449 1772q16 -12 43 -35l55 -48q29 -26 56 -54l50 -50l22 -21l19 -20q-10 -29 -40.5 -59.5t-57.5 -30.5q-16 0 -31.5 5t-27.5 16h2q-33 25 -55 47l-42 43l-24 24 q-31 -35 -67 -67.5t-60 -51.5h2q-4 -4 -25 -12q-4 -2 -14 -2h-8q-31 10 -56.5 31.5t-33.5 40.5l40 44l54 58l58 62l52 55q10 12 36 19.5t40 7.5z" />
<glyph unicode="&#xcb;" horiz-adv-x="808" d="M326 162q29 -4 68 -4h81h143q82 0 146 2q-10 -86 -27.5 -119t-58.5 -43q-39 -2 -97.5 -3t-144.5 -1q-92 0 -173 3t-140 9q-10 47 -17 88v971v131q0 66 -4 127q4 2 13.5 5t19.5 7l25 8q10 4 22.5 8.5t42.5 6.5h510q-2 -41 -6 -68.5t-10 -44t-15.5 -26t-23.5 -15.5 q-45 -8 -91 -9t-104 -1h-159v-393h376q-6 -55 -13 -87t-18.5 -49.5t-27.5 -22.5t-41 -5h-276v-475zM162 1622q0 106 102 107q57 0 73.5 -26t14.5 -77t-21.5 -83t-78.5 -32q-49 0 -69.5 27t-20.5 84zM504 1622q0 106 102 107q57 0 73.5 -26t14.5 -77t-21.5 -83t-78.5 -32 q-49 0 -69.5 27t-20.5 84z" />
<glyph unicode="&#xcc;" horiz-adv-x="444" d="M139 -6q-20 0 -29.5 10t-9.5 39v244q0 90 1 189t1 204q0 61 -1 121.5t-1 120.5v188q0 82 -1 130t-3 63q16 39 60.5 49t126.5 10q27 0 33 -35t6 -108v-254q0 -70 -1.5 -140.5t-1.5 -140.5t1.5 -136.5t1.5 -129.5v-201q0 -59 1 -98t1 -62v-28q-16 -23 -60.5 -29t-124.5 -6z M285 1485q-20 10 -62 33l-90 51q-37 23 -81 46l-77 40q-8 6 -22 24q0 6 3 17.5t7 21.5q8 12 21.5 30.5t27.5 23.5q14 35 49 34q10 0 44 -19.5t76 -48.5l84 -63q42 -33 71 -59h-2q25 -23 35 -45q0 -8 -8.5 -21.5t-18.5 -27t-22.5 -24.5t-20.5 -13h-14z" />
<glyph unicode="&#xcd;" horiz-adv-x="444" d="M141 -6q-20 0 -29.5 10t-9.5 39v244q0 90 1 189t1 204q0 61 -1 121.5t-1 120.5v188q0 82 -1 130t-3 63q16 39 60.5 49t126.5 10q27 0 33 -35t6 -108v-254q0 -70 -1 -140.5t-1 -140.5t1 -136.5t1 -129.5v-201q0 -59 1 -98t1 -62v-28q-16 -23 -60.5 -29t-124.5 -6z M135 1477q-10 2 -19.5 14t-16.5 25.5t-11 25.5t-4 17l16 20q8 10 21 20q33 29 75 61t81.5 57.5t72.5 43t45 17.5q14 -2 27.5 -14.5t24 -30t17.5 -37t11 -33.5q0 -18 -29 -33q-37 -16 -79 -39l-86 -44l-81 -40z" />
<glyph unicode="&#xce;" horiz-adv-x="444" d="M141 -6q-20 0 -29.5 10t-9.5 39v244q0 90 1 189t1 204q0 61 -1 121.5t-1 120.5v188q0 82 -1 130t-3 63q16 39 59.5 49t127.5 10q25 0 31 -35t6 -108v-254q0 -70 -1.5 -140.5t-1.5 -140.5t1.5 -136.5t1.5 -129.5v-201q0 -59 1 -98t1 -62v-28q-16 -23 -59.5 -29t-123.5 -6z M244 1772q16 -12 43 -35l55 -48q29 -26 56 -54l51 -50l21 -21l19 -20q-10 -29 -40.5 -59.5t-57.5 -30.5q-16 0 -31.5 5t-27.5 16h2q-33 25 -54 47l-42 43l-25 24q-31 -35 -66.5 -67.5t-60.5 -51.5h2q-4 -4 -25 -12q-4 -2 -14 -2h-8q-31 10 -56.5 31.5t-33.5 40.5l40 44 l54 58l58 62l53 55q10 12 35.5 19.5t39.5 7.5z" />
<glyph unicode="&#xcf;" horiz-adv-x="444" d="M141 -6q-20 0 -29.5 10t-9.5 39v244q0 90 1 189t1 204q0 61 -1 121.5t-1 120.5v188q0 82 -1 130t-3 63q16 39 59.5 49t127.5 10q25 0 31 -35t6 -108v-254q0 -70 -1.5 -140.5t-1.5 -140.5t1.5 -136.5t1.5 -129.5v-201q0 -59 1 -98t1 -62v-28q-16 -23 -59.5 -29t-123.5 -6z M264 1595q0 47 31 81t90 34t87 -32.5t28 -78.5q0 -53 -33 -83.5t-86 -30.5q-55 0 -86 27.5t-31 82.5zM-74 1595q0 47 32 81t89 34q59 0 87 -32.5t28 -78.5q0 -53 -32 -83.5t-87 -30.5q-53 0 -85 27.5t-32 82.5z" />
<glyph unicode="&#xd0;" horiz-adv-x="1099" d="M436 1362q174 0 287 -47t179.5 -132t93 -201t26.5 -253q0 -211 -42 -358.5t-146 -245.5q-45 -41 -95.5 -67.5t-101.5 -42t-101.5 -20.5t-93.5 -5q-92 0 -169.5 6t-163.5 16v635h-121q2 84 15 121t52 37h54v393q0 59 6 89t24 56l55 5.5t76 6.5t85 5t81 2zM449 154 q61 0 121.5 22.5t108.5 85t77.5 175t29.5 292.5q0 113 -16 196t-48 138t-81 86t-115 41q-55 12 -116 12h-45q-23 0 -39 -2v-395h252q-2 -78 -12.5 -118t-57.5 -40h-182v-487q55 -6 123 -6z" />
<glyph unicode="&#xd1;" horiz-adv-x="1161" d="M686 692l72 -143l65 -137q-4 70 -5 155.5t-1 157.5v494q0 70 21 112q18 12 31.5 18.5t33 9.5t48.5 3h79q-2 -92 -3 -200.5t-1 -229.5v-903q-6 -4 -40 -22.5t-68 -18.5q-14 0 -45 2t-54 12l-87 156l-95 166v-2l-53 95l-56 95l-82 152l-46 95q-24 48 -46 99q-10 20 -19 44 t-20 42q-2 2 -3 4t-3 4q4 -92 6 -181t4 -155v-477q0 -41 -4 -63.5t-14 -44.5q-12 -12 -26.5 -20.5t-36 -11.5t-53 -4t-81.5 -1q2 88 3.5 195.5t1.5 230.5v860l-17 22q-8 11 -8 15v6q0 2 4 14q12 6 32.5 11.5t43 8.5t45 4t35.5 1q35 0 80 -27q33 -66 80 -147l104 -178 q16 -27 29.5 -52.5l27.5 -50.5l26 -45l27 -45zM483 1608q-47 -10 -75 -78q-12 -23 -23 -23q-12 0 -26.5 7.5t-27 16.5t-20.5 17l-10 11q31 92 78 142t123 50q43 0 69 -25l56 -53q14 -14 26.5 -23.5t26.5 -9.5q33 0 50.5 21.5t27.5 58.5q8 20 24 21q10 0 21.5 -8.5t22 -18.5 t17.5 -20.5t9 -14.5q-4 -31 -19.5 -63.5t-39 -59t-56 -44t-71.5 -17.5q-51 0 -76 27.5l-53 56.5q-16 16 -27 22.5t-27 6.5z" />
<glyph unicode="&#xd2;" horiz-adv-x="1171" d="M676 1513q-18 8 -54 28l-79 44l-88 50l-82 46q-16 10 -23 19q0 20 8 37q6 16 20.5 31.5t29.5 15.5q4 14 13 25.5t19 11.5t42 -19.5t72 -49.5l81 -63.5t70 -60.5q16 -18 26 -33q0 -6 -6 -18t-14.5 -25.5t-17.5 -25t-17 -13.5zM264 664q0 -274 91 -408.5t235 -134.5 q150 0 235.5 136t85.5 427q0 145 -24.5 249.5t-68.5 171t-103.5 98.5t-128.5 32h-2q-143 0 -231.5 -137t-88.5 -434zM592 1386q131 0 228.5 -47t160.5 -136t94 -219t31 -294q0 -342 -130 -531.5t-396 -189.5q-139 0 -236.5 49.5t-159 140.5t-90 221t-28.5 294q0 354 135 533 t391 179z" />
<glyph unicode="&#xd3;" horiz-adv-x="1171" d="M264 664q0 -274 91 -408.5t235 -134.5q150 0 235.5 136t85.5 427q0 145 -24.5 249.5t-68.5 171t-103.5 98.5t-128.5 32h-2q-143 0 -231.5 -137t-88.5 -434zM592 1386q131 0 228.5 -47t160.5 -136t94 -219t31 -294q0 -342 -130 -531.5t-396 -189.5q-139 0 -236.5 49.5 t-159 140.5t-90 221t-28.5 294q0 354 135 533t391 179zM508 1473q-10 2 -19.5 14t-16.5 25.5t-11 25.5t-4 16l16 21q8 10 21 20q33 29 74.5 61t81.5 57.5t73 43t45 17.5q14 -2 27.5 -14.5t23.5 -30t17.5 -37t11.5 -33.5q0 -18 -29 -33q-37 -16 -80 -39l-86 -44l-81 -40z" />
<glyph unicode="&#xd4;" horiz-adv-x="1171" d="M264 664q0 -274 91 -408.5t235 -134.5q150 0 235.5 136t85.5 427q0 145 -24.5 249.5t-68.5 171t-103.5 98.5t-128.5 32h-2q-143 0 -231.5 -137t-88.5 -434zM592 1386q131 0 228.5 -47t160.5 -136t94 -219t31 -294q0 -342 -130 -531.5t-396 -189.5q-139 0 -236.5 49.5 t-159 140.5t-90 221t-28.5 294q0 354 135 533t391 179zM606 1784q20 -14 53 -43t68 -63l67 -65q32 -32 54 -52q-10 -27 -33.5 -53.5t-46.5 -26.5q-25 0 -45 18q-33 27 -74 70t-63 63q-39 -47 -76 -81.5t-64 -55.5q-2 -2 -7 -5t-9 -5t-8 -2h-2q-29 8 -50.5 26.5t-27.5 34.5 l39 44l54 59l59 60l53 54q8 12 28.5 17.5t30.5 5.5z" />
<glyph unicode="&#xd5;" horiz-adv-x="1191" d="M289 664q0 -266 84 -395.5t217 -129.5q141 0 219 131t78 414q0 141 -23.5 241.5t-63.5 166t-96.5 96.5t-119.5 31q-133 0 -214 -133t-81 -422zM592 1386q135 0 234.5 -47t164 -136t96 -219t31.5 -294q0 -342 -133 -531.5t-405 -189.5q-141 0 -241.5 49.5t-163 140.5 t-92.5 221t-30 294q0 354 138.5 533t400.5 179zM494 1604q-47 -10 -76 -78q-12 -23 -23 -23q-12 0 -26.5 7.5t-26.5 16.5t-20 17l-11 10q31 92 78 142.5t123 50.5q43 0 70 -25l55 -53q14 -14 26.5 -23.5t26.5 -9.5q33 0 50.5 21.5t27.5 58.5q8 20 25 21q10 0 21 -8.5 t21.5 -18.5t17.5 -20.5t9 -14.5q-4 -31 -19.5 -63.5t-39 -59t-56 -44t-71.5 -17.5q-51 0 -76 27.5l-53 56.5q-16 16 -26.5 22.5t-26.5 6.5z" />
<glyph unicode="&#xd6;" horiz-adv-x="1191" d="M291 664q0 -266 84 -395.5t217 -129.5q141 0 219 131t78 414q0 141 -23.5 241.5t-63.5 166t-96.5 96.5t-119.5 31q-133 0 -214 -133t-81 -422zM594 1386q135 0 234.5 -47t164 -136t96 -219t31.5 -294q0 -342 -133 -531.5t-405 -189.5q-141 0 -241.5 49.5t-163 140.5 t-92.5 221t-30 294q0 354 138.5 533t400.5 179zM330 1622q0 106 102 107q57 0 73.5 -26t14.5 -77t-21.5 -83t-78.5 -32q-49 0 -69.5 27t-20.5 84zM672 1622q0 106 102 107q57 0 73.5 -26t14.5 -77t-21.5 -83t-78.5 -32q-49 0 -69.5 27t-20.5 84z" />
<glyph unicode="&#xd7;" horiz-adv-x="1021" d="M147 283l121 130l121 128l-58 63l-59 62q-31 35 -64 68l-65 65q4 16 10.5 32.5t20.5 34.5q41 47 98 47l117 -125l117 -124q23 23 44 48t44 48l104 108l7 6q12 12 27.5 25.5t33.5 13.5q25 0 51 -20h-2q23 -16 40 -37.5t28 -38.5l-66 -72l-69 -71l-61 -66q-28 -31 -62 -65 l53 -56l51 -55q57 -57 113 -119v2q12 -12 20 -25.5l15 -25.5q-14 -31 -37 -51q-43 -47 -101 -47l-116 126l-119 126l-116 -125l-116 -127q-29 0 -52 10t-46 39q-14 16 -19.5 33t-7.5 35z" />
<glyph unicode="&#xd8;" horiz-adv-x="1234" d="M229 -55q-8 -6 -17 -8.5t-19 -2.5q-12 0 -25 6l-23 9q-16 14 -29.5 29.5t-17.5 31.5q12 27 42 80l59 100q-70 96 -97.5 220.5t-27.5 261.5q0 205 49 351t141 234q131 129 348 129q86 0 160 -19t133 -62l26 40q11 17 23 33q8 14 16.5 23.5t24.5 15.5q18 0 37 -8t34 -19.5 t26.5 -24.5t11.5 -24q-4 -10 -13.5 -30.5t-22.5 -45.5l-28 -53l-26 -51q66 -92 95.5 -214t29.5 -257q0 -170 -32 -304t-97.5 -226t-167 -141.5t-240.5 -49.5q-88 0 -165 22.5t-134 63.5q-18 -31 -37 -58l-33 -50zM911 688q0 178 -47 295l-73 -134l-78 -142l-149 -270 l-134 -226q74 -72 172 -72q68 0 125 27t98 91.5t63.5 168.5t22.5 262zM305 657q0 -90 10.5 -156.5t32.5 -125.5l216 389l216 387q-68 68 -176 68q-66 0 -120 -33t-94 -101.5t-62.5 -174.5t-22.5 -253z" />
<glyph unicode="&#xd9;" horiz-adv-x="1130" d="M641 1497q-18 8 -54 28l-79 44l-88 51q-45 27 -82 45q-20 12 -25 21q0 8 5.5 21t12.5 27.5t17 24.5t23 10q6 14 14 24.5t18 10.5t42 -19.5t72 -49t81 -63.5l70 -60q20 -16 26 -33v-2q0 -10 -14 -35q-10 -16 -19.5 -28.5t-19.5 -16.5zM573 117q100 0 148.5 14t73.5 31 q23 104 32 231t9 256l2 561q0 41 5 71t15 56q12 8 22.5 12.5t27 6.5t41 3t65.5 1q-2 -80 -3 -175t-1 -210v-326q0 -166 -13.5 -301t-42.5 -252q-59 -72 -165.5 -99.5t-227.5 -27.5q-117 0 -195.5 33t-128 91.5t-75 138t-35.5 174.5q-4 51 -7 104t-3 113v389q0 100 -1 179 t-3 142q12 16 51 21.5t117 5.5q14 -25 17 -58.5t3 -95.5v-567q0 -66 3 -121t11 -106q23 -135 80 -215t178 -80z" />
<glyph unicode="&#xda;" horiz-adv-x="1130" d="M573 117q100 0 148.5 14t73.5 31q23 104 32 231t9 256l2 561q0 41 5 71t15 56q12 8 22.5 12.5t27 6.5t41 3t65.5 1q-2 -80 -3 -175t-1 -210v-326q0 -166 -13.5 -301t-42.5 -252q-59 -72 -165.5 -99.5t-227.5 -27.5q-117 0 -195.5 33t-128 91.5t-75 138t-35.5 174.5 q-4 51 -7 104t-3 113v389q0 100 -1 179t-3 142q12 16 51 21.5t117 5.5q14 -25 17 -58.5t3 -95.5v-567q0 -66 3 -121t11 -106q23 -135 80 -215t178 -80zM473 1466q-10 2 -19.5 14.5t-16.5 26t-11 25.5t-4 16l16 21q8 10 21 20q33 29 74.5 60.5t81.5 57.5t73 43t45 17 q14 -2 27.5 -14t24 -29.5t17.5 -37t11 -33.5q0 -18 -29 -33q-37 -16 -79 -39l-87 -44l-80 -40z" />
<glyph unicode="&#xdb;" horiz-adv-x="1130" d="M573 117q100 0 148.5 14t73.5 31q23 104 32 231t9 256l2 561q0 41 5 71t15 56q12 8 22.5 12.5t27 6.5t41 3t65.5 1q-2 -80 -3 -175t-1 -210v-326q0 -166 -13.5 -301t-42.5 -252q-59 -72 -165.5 -99.5t-227.5 -27.5q-117 0 -195.5 33t-128 91.5t-75 138t-35.5 174.5 q-4 51 -7 104t-3 113v389q0 100 -1 179t-3 142q12 16 51 21.5t117 5.5q14 -25 17 -58.5t3 -95.5v-567q0 -66 3 -121t11 -106q23 -135 80 -215t178 -80zM584 1776q20 -14 53 -43t68 -63l66 -65l54 -53q-10 -27 -33.5 -53t-46.5 -26q-25 0 -45 18q-33 27 -73.5 70t-63.5 63 q-39 -47 -75.5 -82t-63.5 -55q-2 -2 -7 -5t-9 -5t-9 -2h-2q-29 8 -50 26.5t-28 34.5l39 44l55 58l58 61l53 54q8 12 29 17.5t31 5.5z" />
<glyph unicode="&#xdc;" horiz-adv-x="1150" d="M573 135q92 0 138.5 13.5t68.5 29.5l-8 -6q20 104 29.5 229t9.5 248l2 555q0 37 6 69t17 60q14 8 27.5 14.5t34 9.5t51 4t79.5 1q-2 -80 -3 -179.5t-1 -211.5v-322q0 -164 -13.5 -297t-41.5 -248q-66 -78 -175.5 -106.5t-232.5 -28.5q-121 0 -203 33t-132 92.5t-76.5 139 t-36.5 176.5q-4 51 -7.5 103t-3.5 112v383q0 98 -1 176t-3 141q16 23 63.5 30t137.5 7q18 -33 22.5 -67.5t4.5 -94.5v-559q0 -61 3 -117.5t11 -105.5q23 -125 75 -204t158 -79zM311 1622q0 106 103 107q57 0 73.5 -26t14.5 -77t-21.5 -83t-79.5 -32q-49 0 -69.5 27t-20.5 84 zM653 1622q0 106 103 107q57 0 73.5 -26t14.5 -77t-21.5 -83t-79.5 -32q-49 0 -69.5 27t-20.5 84z" />
<glyph unicode="&#xdd;" horiz-adv-x="966" d="M729 1343q23 8 41 12.5t41 4.5q12 0 39 -2t74 -6q4 -10 5 -19.5t1 -13.5q0 -16 -6 -32l-15 -36l-2 -2q2 0 1 -3t-3 -5q-23 -53 -68 -138l-94 -171l-77 -140q-37 -69 -56 -112q-8 -23 -15 -46.5t-11 -51.5v-293q0 -49 1 -90t1 -76v-94q-10 -10 -21.5 -17.5t-33 -11.5 t-56.5 -6t-90 -2q-20 49 -20 100v475v26q0 11 -3 17q-16 41 -43.5 101.5t-64.5 130.5l-57 113l-62 118l-65 127l-62 123q0 14 20.5 19.5t94.5 5.5h119q16 -41 51 -117l72 -156l70 -165l46 -101zM422 1438q-16 6 -28.5 21.5t-22.5 29.5q-14 25 -15 39q14 23 41 49 q33 27 76 58.5t84 58t76 44t51 17.5q18 -4 34.5 -17.5t30 -30.5t21.5 -37.5t12 -35.5q0 -14 -12 -23t-29 -20q-37 -16 -79 -39l-87 -45h3l-84 -42q-39 -19 -60 -27h-12z" />
<glyph unicode="&#xdf;" horiz-adv-x="1038" d="M766 268q-4 35 -18.5 64.5t-32.5 52.5q-29 35 -63 68l-66 63l-19 19q-41 41 -74.5 96t-33.5 114q0 78 56 140.5t142 115.5l-4 -2q16 16 28.5 43t12.5 58q0 66 -31.5 103.5t-84.5 45.5q-29 6 -56 6q-4 0 -15 -1t-26 -3q-129 -25 -147 -245q-4 -49 -5 -106.5t-1 -111.5 q0 -90 1 -173t1 -164v-170q0 -84 2 -168q0 -31 -1 -56.5t-5 -48.5q-23 -16 -55.5 -22t-73.5 -6q-47 0 -69 10t-22 14q0 2 1.5 6t1.5 8q2 10 4 27.5t2 40.5v117q0 29 1 57.5t1 58.5v238q0 63 -1 124.5t-1 127.5q-31 35 -44.5 76t-13.5 82q10 10 22.5 17t35.5 17q4 2 1 1t1 2 v27q0 17 2 28v-2q10 104 57 177t125 120q51 29 111.5 43t122.5 14q18 0 34.5 -1t32.5 -3q80 -8 138.5 -34.5t96 -66.5t57 -91.5t19.5 -106.5q0 -59 -20.5 -98t-48.5 -64l-29 -14h4q-53 -35 -96 -74t-43 -90q0 -35 21.5 -64.5t52.5 -58.5h-2q6 -4 12 -10t12 -10l57 -46 q28 -24 44 -40q53 -51 84.5 -111.5t31.5 -138.5q0 -76 -26.5 -134.5t-73.5 -98.5t-112.5 -60.5t-141.5 -20.5q-98 0 -161.5 27t-84.5 55q2 47 29 88q10 16 26.5 22.5t38.5 6.5q23 -12 59 -26.5t79 -14.5q61 0 105 37t36 98z" />
<glyph unicode="&#xe0;" horiz-adv-x="829" d="M100 840q4 -16 11.5 -41t29.5 -47q23 0 41.5 4t34.5 12q45 16 100.5 33.5t104.5 17.5q51 0 63.5 -32.5t12.5 -98.5v-100q-10 2 -21 2h-24h-30q-15 0 -30 -2q-49 -6 -110.5 -23.5t-116.5 -55.5t-93 -100.5t-38 -154.5q0 -72 22.5 -124t61.5 -86t87 -50.5t101 -16.5 q43 0 82 5.5t76 23.5q10 6 23.5 15.5l21.5 15.5q20 -23 54 -41.5t69 -18.5q47 2 79.5 19.5t47.5 38.5q0 10 1 37.5t3 50.5q-25 -4 -37 7t-16 28q-6 18 -4 45v37q0 23 1 47t1 49v43q2 57 2 116v115v90q0 135 -47.5 209t-169.5 82q-25 2 -36 2h-36q-53 -2 -103.5 -12 t-92.5 -25.5t-73.5 -33t-48.5 -31.5q-6 -16 -6 -27v-11q0 -5 4 -15zM494 219l-3.5 -18t-1.5 -6l3 2q-18 -25 -58.5 -42.5t-81.5 -17.5h-12q-39 4 -63.5 33t-24.5 100q0 45 13.5 76t36 51.5t52 31.5t62.5 17h-2q16 2 31.5 3.5t31.5 1.5h21v-136v-54q0 -24 -4 -42zM348 1503 q10 0 37 -27.5t59 -68.5l67 -87l58 -81q2 -6 2 -16q0 -25 -20.5 -48.5t-42.5 -27.5l-52 49l-63 61l-66 65q-34 32 -61 60q-18 18 -22 25q0 14 10 31.5t25.5 32t34 23.5t34.5 9z" />
<glyph unicode="&#xe1;" horiz-adv-x="829" d="M102 838q-4 10 -4 15v11q0 10 6 27q16 14 48 31.5t74 33t92.5 25.5t103.5 12h36q11 0 36 -2q123 -8 170 -81.5t47 -209.5v-90v-115q0 -58 -2 -116v-43q0 -25 -1 -49.5t-1 -46.5v-37q-2 -27 4 -45q4 -16 16 -27.5t37 -7.5q-2 -23 -3 -50.5t-1 -37.5q-14 -20 -47 -37.5 t-80 -20.5q-35 0 -69 18.5t-54 41.5l-21.5 -15.5t-23.5 -15.5q-37 -18 -76 -23.5t-82 -5.5q-53 0 -101 16.5t-87 50.5t-61.5 86t-22.5 124q0 92 38 154.5t93 100.5t116.5 55.5t110.5 23.5q14 2 30 2h30h24q10 0 21 -2v100q0 66 -12.5 98.5t-63.5 32.5q-49 0 -104.5 -17.5 t-100.5 -33.5q-16 -8 -34.5 -12t-41.5 -4q-23 23 -30 47t-11 41zM494 219q4 18 4 42v54v136h-21q-16 0 -31.5 -1t-31.5 -4h2q-33 -6 -62.5 -17t-52 -31.5t-36 -51.5t-13.5 -76q0 -72 24.5 -100.5t63.5 -32.5h12q41 0 81 17.5t59 42.5l-3 -2q0 -2 1.5 6zM514 1505 q18 0 39.5 -10t40 -26.5t31 -35t12.5 -34.5q-6 -10 -12.5 -15.5t-16.5 -15.5l-61 -61l-67 -65l-63 -61l-50 -51q-33 8 -64 34t-31 55v5q0 3 4 13l60 81l70 88q35 42 64.5 70.5t43.5 28.5z" />
<glyph unicode="&#xe2;" horiz-adv-x="829" d="M102 838q-4 10 -4 15v11q0 10 6 27q16 14 48 31.5t74 33t92.5 25.5t103.5 12h36q11 0 36 -2q123 -8 170 -81.5t47 -209.5v-90v-115q0 -58 -2 -116v-43q0 -25 -1 -49.5t-1 -46.5v-37q-2 -27 4 -45q4 -16 16 -27.5t37 -7.5q-2 -23 -3 -50.5t-1 -37.5q-14 -20 -47 -37.5 t-80 -20.5q-35 0 -69 18.5t-54 41.5l-21.5 -15.5t-23.5 -15.5q-37 -18 -76 -23.5t-82 -5.5q-53 0 -101 16.5t-87 50.5t-61.5 86t-22.5 124q0 92 38 154.5t93 100.5t116.5 55.5t110.5 23.5q14 2 30 2h30h24q10 0 21 -2v100q0 66 -12.5 98.5t-63.5 32.5q-49 0 -104.5 -17.5 t-100.5 -33.5q-16 -8 -34.5 -12t-41.5 -4q-23 23 -30 47t-11 41zM494 219q4 18 4 42v54v136h-21q-16 0 -31.5 -1t-31.5 -4h2q-33 -6 -62.5 -17t-52 -31.5t-36 -51.5t-13.5 -76q0 -72 24.5 -100.5t63.5 -32.5h12q41 0 81 17.5t59 42.5l-3 -2q0 -2 1.5 6zM428 1503l49 -55 q31 -35 63 -75l61 -80q30 -40 48 -68q-14 -23 -38.5 -46.5t-47.5 -23.5q-18 0 -39 25q-16 18 -35 42l-34 46l-31 43q-14 20 -23 35q-27 -45 -52 -82t-54 -74q-10 -14 -22.5 -23.5t-16.5 -9.5q-25 10 -47.5 22.5t-32.5 28.5q23 49 70 116l92 130q23 27 41 37q26 12 49 12z " />
<glyph unicode="&#xe3;" horiz-adv-x="833" d="M102 838q-4 10 -4 15v11q0 10 6 27q16 14 48 31.5t74 33t92.5 25.5t103.5 12h36q11 0 36 -2q123 -8 170 -81.5t47 -209.5v-90v-115q0 -58 -2 -116v-43q0 -25 -1 -49.5t-1 -46.5v-37q-2 -27 4 -45q4 -16 16 -27.5t37 -7.5q-2 -23 -3 -50.5t-1 -37.5q-14 -20 -47 -37.5 t-80 -20.5q-35 0 -69 18.5t-54 41.5l-21.5 -15.5t-23.5 -15.5q-37 -18 -76 -23.5t-82 -5.5q-53 0 -101 16.5t-87 50.5t-61.5 86t-22.5 124q0 92 38 154.5t93 100.5t116.5 55.5t110.5 23.5q14 2 30 2h30h24q10 0 21 -2v100q0 66 -12.5 98.5t-63.5 32.5q-49 0 -104.5 -17.5 t-100.5 -33.5q-16 -8 -34.5 -12t-41.5 -4q-23 23 -30 47t-11 41zM494 219q4 18 4 42v54v136h-21q-16 0 -31.5 -1t-31.5 -4h2q-33 -6 -62.5 -17t-52 -31.5t-36 -51.5t-13.5 -76q0 -72 24.5 -100.5t63.5 -32.5h12q41 0 81 17.5t59 42.5l-3 -2q0 -2 1.5 6zM309 1280 q-47 -10 -76 -78q-12 -23 -22 -22q-12 0 -26.5 7t-27 16t-20.5 18l-10 10q31 92 78 142t123 50q43 0 69 -24l56 -53q14 -14 26.5 -23.5t26.5 -9.5q33 0 50 21.5t28 58.5q8 20 24 20q10 0 21.5 -8t22 -18.5t17.5 -20.5t9 -14q-4 -31 -19.5 -64t-39 -59.5t-56.5 -44t-71 -17.5 q-51 0 -76 28t-54 56q-16 16 -26.5 22.5t-26.5 6.5z" />
<glyph unicode="&#xe4;" horiz-adv-x="829" d="M102 838q-4 10 -4 15v11q0 10 6 27q16 14 48 31.5t74 33t92.5 25.5t103.5 12h36q11 0 36 -2q123 -8 170 -81.5t47 -209.5v-90v-115q0 -58 -2 -116v-43q0 -25 -1 -49.5t-1 -46.5v-37q-2 -27 4 -45q4 -16 16 -27.5t37 -7.5q-2 -23 -3 -50.5t-1 -37.5q-14 -20 -47 -37.5 t-80 -20.5q-35 0 -69 18.5t-54 41.5l-21.5 -15.5t-23.5 -15.5q-37 -18 -76 -23.5t-82 -5.5q-53 0 -101 16.5t-87 50.5t-61.5 86t-22.5 124q0 92 38 154.5t93 100.5t116.5 55.5t110.5 23.5q14 2 30 2h30h24q10 0 21 -2v100q0 66 -12.5 98.5t-63.5 32.5q-49 0 -104.5 -17.5 t-100.5 -33.5q-16 -8 -34.5 -12t-41.5 -4q-23 23 -30 47t-11 41zM494 219q4 18 4 42v54v136h-21q-16 0 -31.5 -1t-31.5 -4h2q-33 -6 -62.5 -17t-52 -31.5t-36 -51.5t-13.5 -76q0 -72 24.5 -100.5t63.5 -32.5h12q41 0 81 17.5t59 42.5l-3 -2q0 -2 1.5 6zM139 1280 q0 106 103 106q57 0 73.5 -25.5t14.5 -76.5t-21.5 -83t-79.5 -32q-49 0 -69.5 27t-20.5 84zM461 1280q0 106 102 106q57 0 73.5 -25.5t14.5 -76.5t-21.5 -83t-78.5 -32q-49 0 -69.5 27t-20.5 84z" />
<glyph unicode="&#xe5;" horiz-adv-x="829" d="M102 838q-4 10 -4 15v11q0 10 6 27q16 14 48 31.5t74 33t92.5 25.5t103.5 12h36q11 0 36 -2q123 -8 170 -81.5t47 -209.5v-90v-115q0 -58 -2 -116v-43q0 -25 -1 -49.5t-1 -46.5v-37q-2 -27 4 -45q4 -16 16 -27.5t37 -7.5q-2 -23 -3 -50.5t-1 -37.5q-14 -20 -47 -37.5 t-80 -20.5q-35 0 -69 18.5t-54 41.5l-21.5 -15.5t-23.5 -15.5q-37 -18 -76 -23.5t-82 -5.5q-53 0 -101 16.5t-87 50.5t-61.5 86t-22.5 124q0 92 38 154.5t93 100.5t116.5 55.5t110.5 23.5q14 2 30 2h30h24q10 0 21 -2v100q0 66 -12.5 98.5t-63.5 32.5q-49 0 -104.5 -17.5 t-100.5 -33.5q-16 -8 -34.5 -12t-41.5 -4q-23 23 -30 47t-11 41zM494 219q4 18 4 42v54v136h-21q-16 0 -31.5 -1t-31.5 -4h2q-33 -6 -62.5 -17t-52 -31.5t-36 -51.5t-13.5 -76q0 -72 24.5 -100.5t63.5 -32.5h12q41 0 81 17.5t59 42.5l-3 -2q0 -2 1.5 6zM197 1331 q0 86 57 146.5t147 60.5h2q45 0 83 -17.5t65 -46t41 -65.5t14 -76q0 -88 -59.5 -146.5t-147.5 -58.5q-84 0 -143 55.5t-59 147.5zM299 1333q0 -47 29.5 -78.5t74.5 -31.5q47 0 75 32.5t28 75.5t-27.5 78t-77.5 35q-47 0 -74.5 -34t-27.5 -77z" />
<glyph unicode="&#xe6;" horiz-adv-x="1300" d="M1055 430q-25 -2 -53.5 -3t-59.5 -1q-59 0 -117.5 2t-109.5 6q2 -164 61.5 -227.5t161.5 -63.5q68 0 131.5 17.5t104.5 40.5q10 -25 13 -54l5 -47q-2 -29 -34 -58.5t-66 -41.5q-29 -10 -80 -18.5t-113 -8.5q-80 0 -152.5 23.5t-119.5 77.5q-53 -43 -135 -72t-199 -29 q-106 4 -176 72t-70 217q0 72 27.5 134.5t77 108.5t116 72.5t142.5 26.5q29 0 46 1t46 -3v47q0 18 -1 38t-3 36q-14 102 -125 102q-47 0 -93.5 -16t-84.5 -33v2q-47 -25 -86 -26q-16 25 -27.5 49t-11.5 51q0 23 8 37q18 16 52 34.5t79 34t99 25.5t116 10q168 0 225 -106 q47 53 114.5 79.5t145.5 26.5q80 0 139.5 -25.5t98.5 -71.5t58.5 -108.5t21.5 -136.5q0 -45 -3 -90t-12 -78q-18 -16 -65 -32.5t-92 -20.5zM362 135q90 0 152 70q-6 53 -10 124.5t-4 135.5h-29h-17q-7 0 -18 -2q-72 -10 -121 -51t-49 -138q0 -139 96 -139zM887 840 q-59 0 -107.5 -58.5t-60.5 -201.5q53 -4 107.5 -7.5t101.5 -3.5h39q18 0 30 2q12 14 15 45q0 113 -26.5 168.5t-98.5 55.5z" />
<glyph unicode="&#xe7;" horiz-adv-x="784" d="M731 903q0 -20 -8 -52t-25 -58h-24q-16 0 -32.5 4t-35.5 10q-25 10 -53.5 17t-54.5 7q-12 0 -23 -2q-90 -8 -146.5 -91t-56.5 -261q0 -106 20.5 -172.5t53.5 -104.5t76 -51.5t88 -13.5q47 0 97 14.5t91 34.5q8 -23 13.5 -45t5.5 -33q-2 -23 -16.5 -47t-36.5 -41 q-31 -23 -81.5 -35t-109.5 -12q-86 0 -163 19.5t-135 74t-92 151.5t-34 251q0 162 46 265.5t108 160.5q61 57 137 78.5t154 21.5q49 0 90 -10t72.5 -23.5t51 -29t23.5 -25.5v-2zM334 -59q31 2 64.5 1t64.5 -10q66 -16 109.5 -57t43.5 -100q0 -53 -27.5 -90t-69.5 -61.5 t-89 -38t-86 -19.5q-23 4 -35 26.5t-12 36.5q0 20 27 27q86 29 122.5 53.5t36.5 65.5q0 20 -16 35.5t-42 24.5t-56.5 13.5t-59.5 4.5l9.5 45t15.5 43z" />
<glyph unicode="&#xe8;" horiz-adv-x="831" d="M485 143q-96 0 -154.5 58.5t-62.5 212.5q25 -2 36 -1t36 1q72 0 144.5 3t119.5 9q45 6 93 22.5t67 32.5q10 51 10 121q0 27 -1 51.5t-3 46.5q-12 135 -88 214t-223 79q-88 0 -163 -29.5t-129 -94t-85 -168t-31 -252.5q0 -127 27.5 -221.5t85.5 -153.5q61 -61 136 -81 t153 -20q49 0 93 7.5t66 13.5h-2q25 6 48.5 17.5t42 25.5t30.5 30.5t12 32.5q-2 16 -6 45t-14 58q-59 -33 -119 -46.5t-119 -13.5zM438 842q59 0 88 -40t37 -122v-21q0 -6 1 -11t1 -11q0 -18 -2 -34.5t-6 -27.5q-8 -4 -15 -5t-16 -3q-31 -4 -87 -5t-109 -1h-58 q10 139 56.5 206t101.5 75h8zM362 1503q10 0 37 -27.5t60 -68.5l66 -87l59 -81q2 -6 2 -16q0 -25 -20.5 -48.5t-43.5 -27.5l-52 49l-62 61l-67 65q-34 32 -60 60q-18 18 -23 25q0 14 10.5 31.5t25.5 32t33.5 23.5t34.5 9z" />
<glyph unicode="&#xe9;" horiz-adv-x="831" d="M485 143q59 0 119 13.5t119 46.5q10 -29 14 -57.5t6 -45.5q0 -16 -12 -32.5t-30.5 -30.5t-42 -25.5t-48.5 -17.5h2q-23 -6 -66.5 -13.5t-92.5 -7.5q-78 0 -153 19.5t-136 81.5q-57 59 -85 153.5t-28 221.5q0 150 31 253t85 167.5t129 94t163 29.5q147 0 223 -78.5 t88 -214.5q2 -23 3 -47t1 -51q0 -70 -10 -121q-18 -16 -66.5 -32.5t-93.5 -22.5q-47 -6 -119.5 -9t-144.5 -3q-25 0 -36 -1t-36 1q4 -154 62.5 -212.5t154.5 -58.5zM430 842q-55 -8 -101 -75t-57 -206h58q53 0 109.5 1t86.5 5q8 2 15.5 3t15.5 5q4 10 6 26.5t2 35.5 q0 6 -1 11t-1 11v21q-8 82 -36.5 122t-88.5 40h-8zM543 1503q18 0 39.5 -10t40 -26.5t31 -35t12.5 -34.5q-6 -10 -12.5 -15.5t-16.5 -15.5l-62 -61l-66 -65l-64 -61l-50 -51q-33 8 -63.5 34t-30.5 55v5q0 3 4 13l60 81l69 88q35 42 65 70.5t44 28.5z" />
<glyph unicode="&#xea;" horiz-adv-x="831" d="M485 143q59 0 119 13.5t119 46.5q10 -29 14 -57.5t6 -45.5q0 -16 -12 -32.5t-30.5 -30.5t-42 -25.5t-48.5 -17.5h2q-23 -6 -66.5 -13.5t-92.5 -7.5q-78 0 -153 19.5t-136 81.5q-57 59 -85 153.5t-28 221.5q0 150 31 253t85 167.5t129 94t163 29.5q147 0 223 -78.5 t88 -214.5q2 -23 3 -47t1 -51q0 -70 -10 -121q-18 -16 -66.5 -32.5t-93.5 -22.5q-47 -6 -119.5 -9t-144.5 -3q-25 0 -36 -1t-36 1q4 -154 62.5 -212.5t154.5 -58.5zM430 842q-55 -8 -101 -75t-57 -206h58q53 0 109.5 1t86.5 5q8 2 15.5 3t15.5 5q4 10 6 26.5t2 35.5 q0 6 -1 11t-1 11v21q-8 82 -36.5 122t-88.5 40h-8zM457 1503l49 -55q31 -35 62 -75l62 -80q30 -40 48 -68q-14 -23 -39 -46.5t-47 -23.5q-18 0 -39 25q-16 18 -35 42l-35 46l-30 43q-14 20 -23 35q-27 -45 -52.5 -82l-53.5 -74q-10 -14 -22.5 -23.5t-16.5 -9.5 q-25 10 -47.5 22.5t-32.5 28.5q23 49 69 116l93 130q23 27 41 37q26 12 49 12z" />
<glyph unicode="&#xeb;" horiz-adv-x="831" d="M485 143q59 0 119 13.5t119 46.5q10 -29 14 -57.5t6 -45.5q0 -16 -12 -32.5t-30.5 -30.5t-42 -25.5t-48.5 -17.5h2q-23 -6 -66.5 -13.5t-92.5 -7.5q-78 0 -153 19.5t-136 81.5q-57 59 -85 153.5t-28 221.5q0 150 31 253t85 167.5t129 94t163 29.5q147 0 223 -78.5 t88 -214.5q2 -23 3 -47t1 -51q0 -70 -10 -121q-18 -16 -66.5 -32.5t-93.5 -22.5q-47 -6 -119.5 -9t-144.5 -3q-25 0 -36 -1t-36 1q4 -154 62.5 -212.5t154.5 -58.5zM430 842q-55 -8 -101 -75t-57 -206h58q53 0 109.5 1t86.5 5q8 2 15.5 3t15.5 5q4 10 6 26.5t2 35.5 q0 6 -1 11t-1 11v21q-8 82 -36.5 122t-88.5 40h-8zM182 1280q0 106 103 106q57 0 73.5 -25.5t14.5 -76.5t-21.5 -83t-79.5 -32q-49 0 -69.5 27t-20.5 84zM504 1280q0 106 102 106q57 0 73.5 -25.5t14.5 -76.5t-21.5 -83t-78.5 -32q-49 0 -69.5 27t-20.5 84z" />
<glyph unicode="&#xec;" horiz-adv-x="434" d="M279 973q-68 0 -118 -9.5t-69 -48.5q2 -41 3 -90t1 -118v-357q0 -49 -1 -96t-1 -92v-168q53 2 87 3t55.5 3t33 7t17.5 13q29 45 28 113v686q0 66 -3 94.5t-15 53.5zM80 1503q10 0 36.5 -27.5t59.5 -68.5l67 -87l58 -81q2 -6 2 -16q0 -25 -20.5 -48.5t-42.5 -27.5l-53 49 l-62 61l-67 65q-34 32 -60 60q-18 18 -23 25q0 14 10.5 31.5t26 32t34 23.5t34.5 9z" />
<glyph unicode="&#xed;" horiz-adv-x="434" d="M299 967q12 -25 15 -53.5t3 -94.5v-686q0 -68 -28 -113q-6 -8 -17.5 -13t-33 -7t-55 -3t-87.5 -3v168q0 45 1 92t1 96v357q0 70 -1 118.5t-3 89.5q18 39 67.5 48.5t119.5 9.5zM324 1503q18 0 39.5 -10t40 -26.5t30.5 -35t12 -34.5q-6 -10 -12 -15.5t-16 -15.5l-62 -61 l-66 -65l-64 -61l-50 -51q-33 8 -63.5 34t-30.5 55v5q0 3 4 13l59 81l70 88q35 42 65 70.5t44 28.5z" />
<glyph unicode="&#xee;" horiz-adv-x="434" d="M297 967q12 -25 15 -53.5t3 -94.5v-686q0 -68 -28 -113q-6 -8 -16.5 -13t-32 -7t-55 -3t-87.5 -3v168q0 45 1 92t1 96v357q0 70 -1 118.5t-3 89.5q18 39 67.5 48.5t119.5 9.5zM236 1503l49 -55q31 -35 62 -75l62 -80q30 -40 48 -68q-14 -23 -39 -46.5t-47 -23.5 q-18 0 -39 25q-16 18 -35 42l-35 46l-31 43q-14 20 -22 35q-27 -45 -52.5 -82t-54.5 -74q-10 -14 -22 -23.5t-17 -9.5q-25 10 -47 22.5t-32 28.5q23 49 69 116l92 130q23 27 41 37q27 12 50 12z" />
<glyph unicode="&#xef;" horiz-adv-x="434" d="M297 967q12 -25 15 -53.5t3 -94.5v-686q0 -68 -28 -113q-6 -8 -16.5 -13t-32 -7t-55 -3t-87.5 -3v168q0 45 1 92t1 96v357q0 70 -1 118.5t-3 89.5q18 39 67.5 48.5t119.5 9.5zM256 1262q0 115 121 114q68 0 88 -27.5t18 -82.5q-2 -53 -25.5 -88t-92.5 -35q-59 0 -84 30 t-25 89zM-61 1262q0 115 120 114q68 0 88.5 -27.5t18.5 -82.5q-2 -53 -25.5 -88t-93.5 -35q-59 0 -83.5 30t-24.5 89z" />
<glyph unicode="&#xf0;" horiz-adv-x="942" d="M752 1362q45 20 65 0h-4q23 -12 23 -49q0 -45 -8.5 -68.5t-43.5 -46.5q-20 -14 -39 -24l-30 -19q-14 -8 -19 -12q84 -111 138.5 -273.5t54.5 -343.5q0 -123 -33 -225t-86 -178q-53 -72 -131 -111t-168 -39q-98 0 -175 37t-132 105q-49 66 -81 151.5t-32 184.5 q0 111 39 201.5t105 162.5q43 45 87 71.5t85 41t76.5 18.5t60.5 4q29 0 57.5 -3t50.5 -9q-16 39 -33.5 67.5t-33.5 51.5l-46 -28l-46 -25l-59 -33l-58 -33q-27 -12 -40 -10t-24 8q-10 8 -16 21.5t-6 39.5q0 33 10 54.5t25 40.5l63 34l47 28q23 13 33 17q-53 39 -118.5 65 t-139.5 36l-18 53l41 55q25 31 65 31q31 0 74 -12.5t89 -34t91 -48t80 -54.5q10 6 18 12t19 12q6 4 18 10.5l19 10.5h-4q6 4 13 8t11 8q16 10 29.5 21.5t36.5 17.5zM279 463q0 -96 22.5 -158.5t55 -99.5t70.5 -52.5t69 -15.5q92 0 130 103.5t38 289.5q0 115 -23 209l4 -4 q-31 35 -66.5 47.5t-72.5 12.5q-51 0 -88 -21.5t-72 -64.5q-33 -43 -50 -108.5t-17 -137.5z" />
<glyph unicode="&#xf1;" horiz-adv-x="946" d="M473 823q-49 0 -89 -22.5t-71 -57.5l6 7v-631q0 -35 -4 -55.5t-20 -43.5q-10 -10 -21.5 -14t-27 -7t-38 -4t-54.5 -1h-54q2 82 3 184.5t1 218.5v344q0 49 -6 86t-16 68q23 25 86 51q10 4 17 4h12q29 0 46 -12t27 -31q31 23 61.5 37t59.5 25q33 10 64.5 16t68.5 6 q96 0 155.5 -24.5t93.5 -70.5t45 -113.5t11 -155.5v-310q0 -84 1 -157.5t4 -132.5q-10 -10 -23.5 -16.5t-35 -9.5t-55.5 -5t-85 -2q-23 43 -23 92v537q0 111 -30.5 155.5t-108.5 44.5zM371 1276q-47 -10 -76 -78q-12 -23 -23 -22q-12 0 -26.5 7t-26.5 16t-20 18l-11 10 q31 92 78 142t123 50q43 0 70 -24l55 -54q14 -14 26.5 -23t26.5 -9q33 0 50.5 21.5t27.5 58.5q8 20 25 20q10 0 21 -8t21.5 -18.5t17.5 -20.5t9 -14q-4 -31 -19 -64t-39 -59.5t-56.5 -44t-71.5 -17.5q-51 0 -75.5 28t-53.5 56q-16 16 -26.5 22.5t-26.5 6.5z" />
<glyph unicode="&#xf2;" horiz-adv-x="940" d="M866 492q0 248 -100 374.5t-303 126.5q-92 0 -168 -30.5t-131 -94t-86 -161t-31 -228.5q0 -268 106.5 -388t303.5 -120q88 0 162.5 33t130 98.5t86 163t30.5 226.5zM274 487q0 94 15.5 162t40 109t57.5 60.5t70 19.5q86 0 135 -80t49 -273q0 -102 -14.5 -170.5 t-39 -111.5t-57 -61.5t-69.5 -18.5q-41 0 -75 18.5t-58.5 61.5t-39 112.5t-14.5 171.5zM350 1503q10 0 37 -27.5t59 -68.5l67 -87l58 -81q2 -6 2 -16q0 -25 -20.5 -48.5t-42.5 -27.5l-52 49l-63 61l-66 65q-34 32 -61 60q-18 18 -22 25q0 14 10 31.5t25.5 32t34 23.5t34.5 9 z" />
<glyph unicode="&#xf3;" horiz-adv-x="940" d="M866 492q0 -129 -30.5 -226.5t-86 -163t-130 -98.5t-162.5 -33q-197 0 -303.5 120t-106.5 388q0 131 31 228.5t86 161t131 94t168 30.5q203 0 303 -126.5t100 -374.5zM274 487q0 -102 14.5 -171.5t39 -112.5t58.5 -61.5t75 -18.5q37 0 69.5 18.5t57 61.5t39 111.5 t14.5 170.5q0 193 -49 273t-135 80q-37 0 -70 -19.5t-57.5 -60.5t-40 -109t-15.5 -162zM573 1503q18 0 40 -10t40.5 -26.5t30.5 -35t12 -34.5q-6 -10 -12 -15.5t-16 -15.5l-62 -61l-66 -65l-64 -61l-50 -51q-33 8 -63.5 34t-30.5 55v5q0 3 4 13l59 81l70 88q35 42 64.5 70.5 t43.5 28.5z" />
<glyph unicode="&#xf4;" horiz-adv-x="940" d="M866 492q0 -129 -30.5 -226.5t-86 -163t-130 -98.5t-162.5 -33q-197 0 -303.5 120t-106.5 388q0 131 31 228.5t86 161t131 94t168 30.5q203 0 303 -126.5t100 -374.5zM274 487q0 -102 14.5 -171.5t39 -112.5t58.5 -61.5t75 -18.5q37 0 69.5 18.5t57 61.5t39 111.5 t14.5 170.5q0 193 -49 273t-135 80q-37 0 -70 -19.5t-57.5 -60.5t-40 -109t-15.5 -162zM494 1503l49 -55q31 -35 62 -75l62 -80q30 -40 48 -68q-14 -23 -39 -46.5t-47 -23.5q-18 0 -39 25q-16 18 -35 42l-35 46l-31 43q-14 20 -22 35q-27 -45 -52.5 -82t-54.5 -74 q-10 -14 -22 -23.5t-16 -9.5q-25 10 -47.5 22.5t-32.5 28.5q23 49 69 116l92 130q23 27 41 37q27 12 50 12z" />
<glyph unicode="&#xf5;" horiz-adv-x="940" d="M866 492q0 -129 -30.5 -226.5t-86 -163t-130 -98.5t-162.5 -33q-197 0 -303.5 120t-106.5 388q0 131 31 228.5t86 161t131 94t168 30.5q203 0 303 -126.5t100 -374.5zM274 487q0 -102 14.5 -171.5t39 -112.5t58.5 -61.5t75 -18.5q37 0 69.5 18.5t57 61.5t39 111.5 t14.5 170.5q0 193 -49 273t-135 80q-37 0 -70 -19.5t-57.5 -60.5t-40 -109t-15.5 -162zM399 1221q-25 25 -34 26q-31 -10 -60 -69q-6 -10 -13 -19.5t-28 -9.5q-16 0 -33.5 8t-32 19.5t-24.5 20.5t-12 11q33 96 83 148.5t136 52.5q43 0 68.5 -18.5t50.5 -40.5l18 -19 q10 -12 20.5 -21.5t16.5 -9.5q23 0 34 16.5t21 45.5q16 37 47 37q14 0 28.5 -9.5t27 -20.5t21.5 -22.5t11 -15.5q-4 -35 -20 -68.5t-43 -62.5t-62.5 -46t-78.5 -17q-47 0 -74 22.5t-55 50.5z" />
<glyph unicode="&#xf6;" horiz-adv-x="940" d="M866 492q0 -129 -30.5 -226.5t-86 -163t-130 -98.5t-162.5 -33q-197 0 -303.5 120t-106.5 388q0 131 31 228.5t86 161t131 94t168 30.5q203 0 303 -126.5t100 -374.5zM274 487q0 -102 14.5 -171.5t39 -112.5t58.5 -61.5t75 -18.5q37 0 69.5 18.5t57 61.5t39 111.5 t14.5 170.5q0 193 -49 273t-135 80q-37 0 -70 -19.5t-57.5 -60.5t-40 -109t-15.5 -162zM182 1262q0 115 121 114q68 0 88.5 -27.5t18.5 -82.5q-2 -53 -25 -88t-94 -35q-59 0 -84 30t-25 89zM500 1262q0 115 121 114q68 0 88 -27.5t18 -82.5q-2 -53 -25.5 -88t-93.5 -35 q-59 0 -83.5 30t-24.5 89z" />
<glyph unicode="&#xf7;" horiz-adv-x="1021" d="M84 477q2 76 15.5 112t52.5 36h786q0 -82 -13.5 -120t-56.5 -38h-764zM389 854q0 115 125 115q72 0 93.5 -28t19.5 -83q-2 -53 -25.5 -87t-99.5 -34q-66 0 -89.5 29t-23.5 88zM389 233q0 117 125 117q72 0 93.5 -28.5t19.5 -83.5q-2 -53 -25.5 -87t-99.5 -34 q-66 0 -89.5 28.5t-23.5 87.5z" />
<glyph unicode="&#xf8;" horiz-adv-x="970" d="M481 -31q-74 0 -132 13.5t-101 46.5l-25 -37q-18 -29 -38.5 -50.5t-37.5 -17.5q-29 4 -54 24.5t-32 49.5q8 20 34 59l57 90q-41 59 -62.5 144.5t-21.5 187.5q0 123 33.5 222.5t97.5 166.5q53 55 126.5 89t157.5 34q141 0 219 -57q4 4 7.5 10t7.5 10l41 57q18 26 41 23 q31 -4 58.5 -27.5t31.5 -54.5l-35 -61l-51 -88q41 -59 62.5 -140t21.5 -176q0 -131 -36 -226t-83 -157q-49 -63 -124 -99t-163 -36zM481 121q37 0 71 18.5t58.5 61.5t40 111.5t15.5 168.5q0 84 -19 146l-146 -228l-136 -211q44 -67 116 -67zM289 481q0 -41 3 -74.5t13 -60.5 l107 165l108 167l32.5 53.5t33.5 52.5q-23 29 -48.5 41.5t-60.5 12.5q-78 0 -133 -83.5t-55 -273.5z" />
<glyph unicode="&#xf9;" horiz-adv-x="952" d="M608 209q-25 -29 -66.5 -48.5t-88.5 -15.5q-31 0 -56.5 8.5t-43 32t-27 64.5t-9.5 106l21 410q0 80 -4 125t-15 82q-94 0 -139 -8.5t-65 -30.5q2 -55 3 -118.5t1 -151.5l-19 -334q2 -84 14.5 -147.5t45.5 -108.5t91 -69.5t152 -29.5q37 0 69 6.5t65 16.5q29 10 59.5 25.5 t60.5 37.5q10 -18 27.5 -31.5t46.5 -13.5h11q7 0 18 4q63 29 86 52q-10 31 -16.5 67.5t-6.5 85.5v344q0 117 1 219.5t3 184.5h-53q-68 -2 -94.5 -5t-46.5 -22q-16 -20 -20.5 -41.5t-4.5 -56.5v-639zM412 1503q10 0 36.5 -27.5t59.5 -68.5l66 -87l59 -81q2 -6 2 -16 q0 -25 -20.5 -48.5t-43.5 -27.5l-52 49l-62 61l-67 65q-34 32 -60 60q-18 18 -23 25q0 14 10.5 31.5t25.5 32t34 23.5t35 9z" />
<glyph unicode="&#xfa;" horiz-adv-x="952" d="M608 848q0 35 4 56.5t21 41.5q20 18 47 21.5t94 5.5h53q-2 -82 -3 -184.5t-1 -219.5v-344q0 -49 6.5 -86t16.5 -67q-23 -23 -86 -52q-10 -4 -18 -4h-11q-29 0 -46 13.5t-28 31.5q-31 -23 -61.5 -38t-58.5 -25q-33 -10 -65 -16.5t-69 -6.5q-94 4 -152 29t-91 70 t-45.5 108.5t-14.5 147.5l19 334q0 88 -1 151.5t-3 118.5q20 23 65 31t139 8q10 -37 14.5 -82t4.5 -125l-21 -410q0 -66 9.5 -106.5t27 -64t43 -32t56.5 -8.5q47 -4 89 15.5t66 48.5v639zM569 1503q18 0 40 -10t40.5 -26.5t30.5 -35t12 -34.5q-6 -10 -12 -15.5t-16 -15.5 l-62 -61l-66 -65l-64 -61l-50 -51q-33 8 -63.5 34t-30.5 55v5q0 3 4 13l59 81l70 88q35 42 64.5 70.5t43.5 28.5z" />
<glyph unicode="&#xfb;" horiz-adv-x="952" d="M608 848q0 35 4 56.5t21 41.5q20 18 47 21.5t94 5.5h53q-2 -82 -3 -184.5t-1 -219.5v-344q0 -49 6.5 -86t16.5 -67q-23 -23 -86 -52q-10 -4 -18 -4h-11q-29 0 -46 13.5t-28 31.5q-31 -23 -61.5 -38t-58.5 -25q-33 -10 -65 -16.5t-69 -6.5q-94 4 -152 29t-91 70 t-45.5 108.5t-14.5 147.5l19 334q0 88 -1 151.5t-3 118.5q20 23 65 31t139 8q10 -37 14.5 -82t4.5 -125l-21 -410q0 -66 9.5 -106.5t27 -64t43 -32t56.5 -8.5q47 -4 89 15.5t66 48.5v639zM489 1503l50 -55q31 -35 62 -75l62 -80q30 -40 48 -68q-14 -23 -39 -46.5t-47 -23.5 q-18 0 -39 25q-16 18 -35 42l-35 46l-31 43q-14 20 -22 35q-27 -45 -52.5 -82t-54.5 -74q-10 -14 -22 -23.5t-17 -9.5q-25 10 -47 22.5t-32 28.5q23 49 69 116l92 130q23 27 41 37q26 12 49 12z" />
<glyph unicode="&#xfc;" horiz-adv-x="952" d="M608 848q0 35 4 56.5t21 41.5q20 18 47 21.5t94 5.5h53q-2 -82 -3 -184.5t-1 -219.5v-344q0 -49 6.5 -86t16.5 -67q-23 -23 -86 -52q-10 -4 -18 -4h-11q-29 0 -46 13.5t-28 31.5q-31 -23 -61.5 -38t-58.5 -25q-33 -10 -65 -16.5t-69 -6.5q-94 4 -152 29t-91 70 t-45.5 108.5t-14.5 147.5l19 334q0 88 -1 151.5t-3 118.5q20 23 65 31t139 8q10 -37 14.5 -82t4.5 -125l-21 -410q0 -66 9.5 -106.5t27 -64t43 -32t56.5 -8.5q47 -4 89 15.5t66 48.5v639zM211 1280q0 106 102 106q57 0 73.5 -25.5t14.5 -76.5t-21.5 -83t-78.5 -32 q-49 0 -69.5 27t-20.5 84zM532 1280q0 106 103 106q57 0 73.5 -25.5t14.5 -76.5t-21.5 -83t-78.5 -32q-49 0 -70 27t-21 84z" />
<glyph unicode="&#xfd;" horiz-adv-x="821" d="M203 979q16 0 35.5 -29.5t25.5 -58.5l22 -72l29 -98l33 -112l31 -109q14 -51 25.5 -100.5t21.5 -86.5q0 -6 2 -8q10 37 19 82l20 94q2 6 3 14.5t3 12.5l29 126q14 62 30 124l24 98l22 90q18 16 33.5 21.5t45.5 5.5h27q16 0 33 -2q10 0 23.5 -1t21.5 -1q14 -29 14 -51 q0 -23 -10 -58q-20 -84 -50 -190l-65 -224l-73 -237l-78 -234q-43 -109 -84 -181.5t-81 -115.5t-80 -61t-77 -18q-80 0 -121 22.5t-51 50.5q0 16 6 39l8 25q27 10 43.5 9t34.5 -1q20 0 42 2t48 12l-2 -2q18 8 38 40t38.5 75t32.5 93t24 97l-2 2q-16 20 -24 41t-19 56 q-4 14 -18 60l-35 112l-45 144l-50 159l-51 155l-46 134q12 31 50 43t124 12zM385 1075q-23 4 -37 16.5t-26 28.5q-14 20 -15 39q0 4 6 21l59 81q34 46 68.5 88t64.5 70.5t44 28.5q35 0 61.5 -20.5t42.5 -45.5q16 -20 17 -36q-4 -12 -31 -35h2l-59 -61l-65 -63l-62 -61 l-52 -49z" />
<glyph unicode="&#xff;" horiz-adv-x="821" d="M203 979q16 0 35.5 -29.5t25.5 -58.5l22 -72l29 -98l33 -112l31 -109q14 -51 24.5 -100.5t20.5 -88.5l25 95q14 53 24 102l29 126q14 65 30 124l24 98l22 90q18 16 33.5 21.5t45.5 5.5h27q16 0 33 -2q10 0 23.5 -1t21.5 -1q14 -29 14 -51q0 -23 -10 -58q-20 -84 -50 -190 l-65 -224l-73 -237l-78 -234q-43 -109 -84 -181.5t-81 -115.5t-80 -61t-77 -18q-80 0 -121 22.5t-51 50.5q0 16 6 39l8 25q27 10 43.5 9t34.5 -1q20 0 42 2t48 12l-2 -2q18 8 38 40t38.5 75t32.5 93t24 97l-2 2q-16 20 -24 41t-19 56q-4 14 -18 60l-35 112l-45 144l-50 159 l-51 155l-46 134q12 31 50 43t124 12zM170 1280q0 106 102 106q57 0 73.5 -25.5t14.5 -76.5t-21.5 -83t-78.5 -32q-49 0 -69.5 27t-20.5 84zM492 1280q0 106 102 106q57 0 73.5 -25.5t14.5 -76.5t-21.5 -83t-78.5 -32q-49 0 -69.5 27t-20.5 84z" />
<glyph unicode="&#x152;" horiz-adv-x="1601" d="M1112 164q31 -4 70 -5t78 -1h147q82 0 143 2q-4 -86 -22.5 -119t-59.5 -43q-23 -2 -65.5 -3t-112.5 -1q-109 0 -205 4t-157 8q-2 4 -2 8t-2 9q-2 4 -2 8q-2 4 -5.5 13t-5.5 13v41q-59 -63 -144 -93t-189 -30q-141 0 -240.5 47.5t-162 136.5t-91.5 218t-29 293 q0 221 56.5 370.5t160.5 235.5q66 55 144 79.5t176 24.5q102 0 182 -25.5t137 -82.5v49l25 12l35.5 14.5t56.5 10.5h498q-4 -82 -16.5 -113t-36.5 -41q-29 -8 -62 -9t-84 -1h-215v-393h377q-6 -55 -13.5 -87t-19.5 -49.5t-28.5 -22.5t-38.5 -5h-277v-473zM291 659 q0 -139 23.5 -237t63.5 -160.5t94 -92.5t118 -30q66 0 120 30t94 95.5t62.5 169t22.5 250.5q0 152 -23.5 254t-63.5 164.5t-94.5 89.5t-115.5 27t-116.5 -32t-96.5 -99.5t-64.5 -173t-23.5 -252.5v-3z" />
<glyph unicode="&#x153;" horiz-adv-x="1437" d="M1200 428q-25 -2 -54 -2h-61q-61 0 -117.5 1t-107.5 5q0 -82 16.5 -137t45 -89t68.5 -48.5t91 -14.5q66 0 128.5 18.5t109.5 43.5q8 -27 12 -55.5t6 -51.5q-2 -29 -34.5 -58.5t-67.5 -41.5q-27 -8 -79 -16.5t-112 -8.5q-86 0 -163.5 36t-132.5 95q-49 -61 -127 -98 t-168 -37q-195 0 -300.5 118t-105.5 392q0 272 146 412q51 47 119.5 73.5t152.5 26.5q199 0 297 -131q51 66 127 98.5t166 32.5q80 0 138 -25.5t97 -71.5t58.5 -108.5t21.5 -136.5q0 -45 -3 -89t-11 -77q-16 -16 -64.5 -33.5t-91.5 -21.5zM459 121q35 0 67.5 18.5t58 61.5 t41 113.5t15.5 172.5q0 193 -50 271t-132 78q-39 0 -73 -18.5t-58.5 -60.5t-39 -108.5t-14.5 -163.5q0 -102 14.5 -171.5t39 -112.5t58.5 -61.5t73 -18.5zM1032 838q-59 0 -107 -57.5t-61 -200.5q51 -6 106.5 -9.5t100.5 -3.5h39q16 0 33 4q10 14 14 43q0 113 -26.5 168.5 t-98.5 55.5z" />
<glyph unicode="&#x178;" horiz-adv-x="966" d="M729 1343q23 8 41 12.5t41 4.5q12 0 39 -2t74 -6q4 -10 5 -19.5t1 -13.5q0 -16 -6 -32l-15 -36l-2 -2q2 0 1 -3t-3 -5q-23 -53 -68 -138l-94 -171l-77 -140q-37 -69 -56 -112q-8 -23 -15 -45.5t-11 -50.5v-295q0 -49 1 -90t1 -76v-94q-10 -10 -21.5 -17.5t-33 -11.5 t-56.5 -6t-90 -2q-20 49 -20 100v475v26q0 11 -3 17q-16 41 -43.5 101.5t-64.5 130.5l-57 113l-62 118l-65 127l-62 123q0 14 20.5 19.5t94.5 5.5h119q16 -41 51 -117l72 -156l71 -165l47 -101zM219 1622q0 106 103 107q57 0 73.5 -26t14.5 -77t-21.5 -83t-79.5 -32 q-49 0 -69.5 27t-20.5 84zM561 1622q0 106 103 107q57 0 73.5 -26t14.5 -77t-21.5 -83t-79.5 -32q-49 0 -69.5 27t-20.5 84z" />
<glyph unicode="&#x2c6;" horiz-adv-x="815" d="M428 1452l49 -55q31 -35 63 -75l61 -80q30 -40 48 -68q-14 -23 -38.5 -46.5t-47.5 -23.5q-18 0 -39 24q-16 18 -35 42l-34 47l-31 43q-14 20 -23 34q-27 -45 -52 -81.5t-54 -73.5q-10 -14 -22.5 -23.5t-16.5 -9.5q-25 10 -47.5 22.5t-32.5 28.5q23 49 70 116l92 130 q23 27 41 37q26 12 49 12z" />
<glyph unicode="&#x2dc;" horiz-adv-x="901" d="M346 1266q-47 -10 -76 -78q-12 -23 -22 -23q-12 0 -26.5 7.5t-27 16.5t-20.5 17l-10 11q31 92 78 142t123 50q43 0 69 -25l55 -53q14 -14 26.5 -23.5t27.5 -9.5q33 0 50 21.5t28 58.5q8 20 24 21q10 0 21.5 -8.5t21.5 -18.5t17.5 -20.5t9.5 -14.5q-4 -31 -19.5 -63.5 t-39 -59t-56.5 -44t-72 -17.5q-51 0 -75.5 27.5t-53.5 56.5q-16 16 -26.5 22.5t-26.5 6.5z" />
<glyph unicode="&#x2000;" horiz-adv-x="933" />
<glyph unicode="&#x2001;" horiz-adv-x="1867" />
<glyph unicode="&#x2002;" horiz-adv-x="933" />
<glyph unicode="&#x2003;" horiz-adv-x="1867" />
<glyph unicode="&#x2004;" horiz-adv-x="622" />
<glyph unicode="&#x2005;" horiz-adv-x="466" />
<glyph unicode="&#x2006;" horiz-adv-x="311" />
<glyph unicode="&#x2007;" horiz-adv-x="311" />
<glyph unicode="&#x2008;" horiz-adv-x="233" />
<glyph unicode="&#x2009;" horiz-adv-x="372" />
<glyph unicode="&#x200a;" horiz-adv-x="102" />
<glyph unicode="&#x2010;" horiz-adv-x="598" d="M453 463q-35 -6 -76 -11l-86 -11q-45 -5 -89 -8t-81 -3q-16 0 -30.5 2t-35.5 10q8 78 22.5 116t47.5 40q84 8 182.5 19.5t169.5 21.5q14 -2 30.5 -8t33.5 -15q-4 -61 -24.5 -104t-65.5 -49h2z" />
<glyph unicode="&#x2011;" horiz-adv-x="598" d="M453 463q-35 -6 -76 -11l-86 -11q-45 -5 -89 -8t-81 -3q-16 0 -30.5 2t-35.5 10q8 78 22.5 116t47.5 40q84 8 182.5 19.5t169.5 21.5q14 -2 30.5 -8t33.5 -15q-4 -61 -24.5 -104t-65.5 -49h2z" />
<glyph unicode="&#x2012;" horiz-adv-x="598" d="M453 463q-35 -6 -76 -11l-86 -11q-45 -5 -89 -8t-81 -3q-16 0 -30.5 2t-35.5 10q8 78 22.5 116t47.5 40q84 8 182.5 19.5t169.5 21.5q14 -2 30.5 -8t33.5 -15q-4 -61 -24.5 -104t-65.5 -49h2z" />
<glyph unicode="&#x2013;" horiz-adv-x="999" d="M20 432q-2 25 -2 53v33q2 82 35 114t80 32h793q2 -23 1 -46.5t-1 -31.5q-8 -88 -35 -121t-76 -33h-795z" />
<glyph unicode="&#x2014;" horiz-adv-x="1673" d="M1597 496q-33 -27 -69.5 -33t-77.5 -6h-1403q0 53 4 82.5t25 44.5q35 23 73.5 30t79.5 7h1397q-2 -53 -5.5 -83t-23.5 -42z" />
<glyph unicode="&#x2018;" horiz-adv-x="382" d="M287 1110q-10 -33 -44 -56.5t-81 -23.5h-18q-9 0 -17 2q-39 6 -58.5 37t-19.5 78v14q0 8 2 15q8 80 45 159.5t78 124.5q20 20 38.5 29.5t47.5 9.5q41 0 72 -33q-68 -125 -72 -260q2 -4 5 -6t5 -6l9 -34q4 -17 6 -30q0 -4 1 -9t1 -9v-2z" />
<glyph unicode="&#x2019;" horiz-adv-x="382" d="M96 1411q14 35 49 58.5t80 23.5q18 0 31 -4q37 -10 56.5 -42t19.5 -77v-13q0 -7 -2 -11q-4 -39 -16.5 -80t-29 -79t-37 -71t-40.5 -53q-35 -37 -74 -43q-23 0 -45 8t-39 25q68 125 72 262q-2 4 -5 6t-5 6q-4 16 -8.5 30.5t-6.5 28.5v25z" />
<glyph unicode="&#x201a;" horiz-adv-x="380" d="M72 180q14 29 49 54.5t82 25.5q18 0 30 -4q41 -8 59.5 -42t18.5 -81q0 -45 -14 -94t-35.5 -94t-49.5 -82t-52 -60q2 2 0 2q-31 -20 -41 -20q-6 -2 -27 -2q-18 0 -38.5 5t-41.5 22q41 63 60.5 132.5t23.5 135.5q-8 6 -10 12q-8 29 -11 49.5t-5 36.5z" />
<glyph unicode="&#x201c;" horiz-adv-x="700" d="M604 1110q-10 -33 -44 -56.5t-81 -23.5h-17q-9 0 -18 2q-39 6 -58 38t-19 79v14q0 8 2 13q2 39 14 79.5t28.5 77.5t37 70t40.5 55q37 41 86 41q43 0 74 -33q-35 -59 -52 -127.5t-22 -132.5q6 -4 15 -12q10 -37 14 -82v-2zM289 1110q-10 -33 -44 -56.5t-81 -23.5h-18 q-9 0 -15 2q-41 6 -60.5 37t-19.5 78v14q0 8 2 15q8 80 45 159.5t78 124.5q20 20 38.5 29.5t47.5 9.5q41 0 72 -33q-68 -125 -72 -260q4 -4 7 -6t5 -6q4 -16 8 -34l5 -30q0 -4 1 -9t1 -9v-2z" />
<glyph unicode="&#x201d;" horiz-adv-x="700" d="M412 1409q8 31 36.5 53.5t69.5 26.5q6 2 14 2h15h12q8 0 12 -2q41 -6 59.5 -39t18.5 -80v-13q0 -7 -2 -11q-4 -39 -16.5 -80t-29.5 -79t-37.5 -71t-39.5 -53q-31 -33 -73 -43q-23 0 -45.5 8t-38.5 25q33 59 49 128.5t20 135.5q-10 10 -14 16q-2 12 -3 22.5t-3 22.5 q-2 6 -2 14.5t-2 12.5v4zM98 1411q14 35 49 58.5t80 23.5q18 0 31 -4q37 -10 56.5 -42t19.5 -77v-13q0 -7 -2 -11q-4 -41 -16.5 -82t-29 -78t-37 -70t-40.5 -53q-16 -18 -33.5 -28.5t-40.5 -14.5q-23 0 -45 8t-39 25q35 61 53.5 128.5t20.5 133.5q-4 4 -7 6t-5 6 q-4 16 -8.5 30.5t-6.5 28.5v25z" />
<glyph unicode="&#x201e;" horiz-adv-x="700" d="M74 180q14 29 49 54.5t82 25.5q16 0 28 -4q41 -8 60.5 -42t19.5 -79t-14 -94t-35.5 -94t-48.5 -82t-51 -60q2 2 0 2q-14 -10 -24.5 -16t-16.5 -6h-25q-45 0 -82 29q82 137 84 262q-6 4 -7 6t-5 6q-6 12 -6 16q-6 37 -10 72zM391 131q0 41 16.5 68.5t41.5 38.5v-2l12 6h-6 q2 2 3 1t3 1q23 8 39 10t32 2q49 0 73 -37t24 -84t-15.5 -98t-38 -96t-51 -82t-53.5 -58q-14 -10 -26.5 -13t-32.5 -3q-18 0 -39 6t-41 23q41 66 59.5 135t22.5 129q-14 10 -18.5 23.5t-4.5 29.5z" />
<glyph unicode="&#x2022;" horiz-adv-x="505" d="M80 539q0 86 44 130t142 44q106 0 138 -43t30 -125q-2 -41 -10 -75t-29.5 -58.5t-56.5 -38t-90 -13.5q-92 0 -130 43.5t-38 135.5z" />
<glyph unicode="&#x2026;" horiz-adv-x="1345" d="M102 111q0 127 140 127q80 0 103.5 -31t21.5 -92q-2 -59 -29 -97t-111 -38q-72 0 -98.5 32.5t-26.5 98.5zM969 111q0 127 139 127q80 0 103.5 -31t21.5 -92q-2 -59 -28.5 -97t-110.5 -38q-72 0 -98.5 32.5t-26.5 98.5zM530 111q0 127 140 127q80 0 103.5 -31t21.5 -92 q-2 -59 -29 -97t-111 -38q-72 0 -98.5 32.5t-26.5 98.5z" />
<glyph unicode="&#x202f;" horiz-adv-x="372" />
<glyph unicode="&#x2039;" horiz-adv-x="567" d="M55 502l68 99l94 134l97 136l67 96q25 -4 45 -16.5t35.5 -28t26 -30.5t10.5 -24q0 -16 -15.5 -48t-38 -69.5t-50.5 -79.5l-54 -79l-47 -65q-20 -28 -29 -38l50 -68q38 -52 77 -113.5t70 -117t31 -79.5q0 -8 -9.5 -24.5t-25 -33t-37 -30t-45.5 -15.5l-41 62l-61 86l-70 98 l-70 98q-16 20 -32.5 45t-30.5 41q-8 16 -13.5 31.5t-5.5 28.5z" />
<glyph unicode="&#x203a;" horiz-adv-x="567" d="M510 473l-45 -66l-64 -92l-71 -100l-70 -94l-46 -67q-22 -32 -34 -48q-6 2 -24.5 10.5t-39 22.5t-35.5 32.5t-15 41.5t26.5 69.5t62.5 101.5l72 105l60 82q8 12 14 18q-12 14 -49 68l-77 115q-40 61 -70.5 118.5t-30.5 81.5q0 18 15 36t35.5 31t41 21.5l29.5 12.5l42 -66 l63 -93l74 -105l72 -103q12 -18 26.5 -36.5t25.5 -34.5q16 -37 16 -56z" />
<glyph unicode="&#x2044;" horiz-adv-x="1050" d="M137 -80q-6 6 -10 8t-6 4q-18 10 -40 26.5t-26 33.5q25 47 80 142l126 217l152 259l158 269l143 242l115 194q10 16 22.5 28.5t22.5 12.5q4 0 18.5 -5t27.5 -14q23 -12 39 -28.5t20 -38.5l-75 -130l-122 -209l-151 -258l-164 -276l-133 -226l-119 -202q-33 -53 -57 -53 q-17 0 -21 4z" />
<glyph unicode="&#x205f;" horiz-adv-x="466" />
<glyph unicode="&#x20ac;" horiz-adv-x="972" d="M653 1217h-20q-10 0 -21 -3q-98 -10 -178 -78.5t-119 -224.5l235 24l232 21q4 -63 -5 -107t-58 -50l-430 -43q-2 -25 -3 -48.5t-1 -52.5v-47q86 10 182 18.5t182 18.5q4 -66 -5 -109.5t-58 -48.5l-142 -15l-141 -15q33 -156 119 -230.5t215 -74.5q70 0 140.5 22.5 t109.5 44.5q25 -41 28 -84q-6 -59 -53 -98q-31 -27 -98.5 -47.5t-155.5 -20.5q-109 0 -199 23.5t-159.5 79t-115.5 144.5t-64 218q-23 -2 -46.5 -5t-41.5 -5q-4 45 -1 86t13 53q27 16 61 21v61q0 25 -1 44.5t3 41.5q-18 -2 -39.5 -4t-35.5 -4q-4 45 -1 86t13 53q25 16 63 21 l19 2q35 213 160 344q86 92 185 124.5t208 32.5q68 0 120 -11t88.5 -28.5t58.5 -37t30 -33.5q0 -35 -9.5 -62.5t-25.5 -48.5h-19q-16 -2 -27 2t-28 13l-12 6v-2q-39 16 -78 24.5t-74 8.5z" />
<glyph unicode="&#x2122;" horiz-adv-x="978" d="M434 860q4 59 10 129l13 141q4 41 7 83t7 81q0 23 -2 33v12q4 10 13.5 12.5l25.5 6.5q8 0 18.5 1t20.5 1h37l19 -40q9 -19 20 -46q6 -14 11 -30.5t11 -29.5l15 -38q7 -18 10 -25l-2 2q2 -16 10 -37l7 19q3 8 7 16l15 41q8 23 16 39q10 29 20 54l21 52l-2 -4q0 4 5 11.5 t21 11.5q4 0 11 2q10 0 21 1t18 1h43q4 -12 6 -25.5t2 -21.5q4 -66 7 -135.5t7 -135.5q4 -47 7 -92t5 -82q-10 -14 -34.5 -18t-77.5 -4q-6 8 -10.5 22.5t-4.5 24.5q-2 16 -2 32v31q0 16 -1 33t-1 33v80q-4 -12 -6 -17q-4 -6 -8 -17t-6 -17l-22 -61q-11 -32 -23 -60 q-12 -4 -19.5 -7t-17.5 -3h-51l-28 75l-34 88l-4 -79q-2 -39 -6 -74q-2 -10 -2 -17.5t-2 -17.5q0 -6 -2 -14.5t-4 -18.5q-27 -14 -47 -14h-17q-6 0 -13 1t-17 1zM311 1266v-295q0 -16 1 -29.5t1 -28.5v-47q-16 -14 -35.5 -16t-76.5 -2q-10 27 -11 47v371h-90q-10 0 -21 1 t-34 5v31q2 10 3 17t3 15q2 12 14.5 17.5t20.5 5.5h369q0 -37 -6 -62q-4 -12 -15.5 -19t-23.5 -11h-99z" />
<glyph unicode="&#xe000;" horiz-adv-x="980" d="M0 980h980v-980h-980v980z" />
<glyph unicode="&#xfb01;" horiz-adv-x="972" d="M809 967q12 -25 15 -53.5t3 -94.5v-686q0 -68 -28 -113q-6 -8 -16.5 -13t-32 -7t-55 -3t-87.5 -3v168q0 45 1 92t1 96v465q-78 -2 -149.5 -3t-104.5 -1v-185q0 -99 1 -201l2 -198q1 -96 1 -176q0 -10 -3 -25.5t-19 -21.5q-33 -6 -72 -8t-57 -2q-31 0 -64 6q-2 10 -2 25 v30v121q0 29 1 60.5t1 64.5v248q0 68 -1 130t-1 132q-86 2 -125 33q6 61 17.5 79.5t44.5 24.5l29 7q12 3 34 8q0 41 2 77.5t7 69.5v-2q8 102 46 168.5t90 105.5t113.5 54.5t116.5 15.5q66 4 113 -8t82 -25q4 -2 10 -4t10 -4v2q29 -10 42 -18.5t24 -18.5q8 -10 9 -18t1 -21 l-4 -20q-2 -10 -8 -27q-6 -14 -12.5 -24.5t-16.5 -22.5q-37 0 -45 4t-27 10q-10 4 -17 5.5t-11 3.5q-27 10 -69 18t-77 8q-31 0 -58.5 -8t-49 -31.5t-37 -63.5t-17.5 -102q-2 -31 -2 -58v-62q80 0 160 2t158 2h64q30 0 48 2z" />
<glyph unicode="&#xfb02;" horiz-adv-x="956" d="M610 1079q0 68 -1 114t-3 89q-47 10 -84 10q-31 0 -58.5 -8t-49 -31.5t-35.5 -63.5t-17 -102q-2 -31 -2 -58v-62h89q35 0 74.5 1t60.5 3q-2 -41 -6.5 -67.5t-11.5 -42t-17 -24t-25 -14.5l2 2q-4 -2 -11 -5t-11 -5q-29 -4 -66 -4h-80v-185q0 -99 1 -201l2 -198 q1 -96 1 -176q0 -10 -3 -25.5t-21 -21.5q-33 -6 -71 -8t-56 -2q-33 0 -66 6q-2 10 -2 25v30v121q0 29 1 60.5t1 64.5v248q0 68 -1 130t-1 132q-86 4 -125 33q6 61 17.5 79.5t46.5 24.5l27.5 7t33.5 8q0 41 2 77.5t7 69.5v-2q8 102 46 168.5t91 105.5t114.5 54.5t116.5 15.5 q63 4 112.5 -9t84.5 -26q51 -18 69.5 -28.5t22.5 -24.5q10 -29 12 -71t2 -119v-973q-2 -27 4 -45q4 -16 17.5 -27.5t38.5 -7.5q-2 -23 -3 -51.5t-1 -36.5q-16 -23 -49 -39.5t-78 -18.5q-23 0 -44.5 8.5t-39.5 20.5q-29 20 -43.5 49t-14.5 60v966z" />
<glyph unicode="&#xfb03;" horiz-adv-x="1552" d="M1415 967q12 -25 15 -53.5t3 -94.5v-686q0 -68 -28 -113q-6 -8 -16.5 -13t-32 -7t-55 -3t-87.5 -3v168q0 45 1 92t1 96v357q0 70 -1 118.5t-3 89.5q18 39 67.5 48.5t119.5 9.5zM1206 1307q0 123 127 123q72 0 93 -30q20 -27 20 -79q0 -66 -27 -106q-25 -36 -98 -35 q-63 0 -89 30.5t-26 96.5zM1247 1409q8 -10 9 -19.5t1 -21.5l-4 -19.5t-8 -25.5q-12 -29 -22 -39q-27 -14 -50 -6q-10 6 -18 6q-16 4 -35.5 6t-38.5 2q-31 0 -58.5 -8t-50 -31.5t-37 -63.5t-16.5 -102q-2 -31 -2 -58v-62h88q35 0 76 1t60 3q-2 -41 -6.5 -67.5t-10.5 -42 t-16 -24t-25 -14.5l2 2q-4 -2 -12 -5t-12 -5q-29 -4 -65 -4h-81v-185q0 -99 1 -201l2 -198q1 -96 1 -176q0 -10 -3 -25.5t-21 -21.5q-33 -6 -71 -8t-56 -2q-33 0 -66 6q-2 10 -2 25v30v121q0 29 1 60.5t1 64.5v248q0 68 -1 130t-1 132q-86 4 -125 33q4 31 8.5 49t11.5 28.5 t17 16.5t27 10q10 4 23.5 6t37.5 9q0 41 2 77.5t7 69.5v-2q8 104 45.5 171t91 104.5t116 53t117.5 15.5q68 0 109 -13.5t57 -29.5h2zM688 1409q8 -10 9 -19.5t1 -21.5l-4 -19.5t-8 -25.5q-12 -29 -22 -39q-27 -14 -50 -6q-10 6 -18 6q-16 4 -35.5 6t-38.5 2q-31 0 -58.5 -8 t-50 -31.5t-37 -63.5t-16.5 -102q-2 -31 -2 -58v-62h88q35 0 76 1t60 3q-2 -41 -6.5 -67.5t-10.5 -42t-16 -24t-25 -14.5l2 2q-4 -2 -12 -5t-12 -5q-29 -4 -65 -4h-81v-185q0 -99 1 -201l2 -198q1 -96 1 -176q0 -10 -3 -25.5t-21 -21.5q-33 -6 -71 -8t-56 -2q-33 0 -66 6 q-2 10 -2 25v30v121q0 29 1 60.5t1 64.5v248q0 68 -1 130t-1 132q-86 4 -125 33q4 31 8.5 49t11.5 28.5t17 16.5t27 10q10 4 23.5 6t37.5 9q0 41 2 77.5t7 69.5v-2q8 104 45.5 171t91 104.5t116 53t117.5 15.5q68 0 109 -13.5t57 -29.5h2z" />
<glyph unicode="&#xfb04;" horiz-adv-x="1550" d="M1429 201q-2 -27 4 -45q4 -16 17.5 -27.5t38.5 -7.5q-2 -23 -3 -51.5t-1 -36.5q-16 -23 -48 -39.5t-79 -18.5q-23 0 -44.5 8.5t-37.5 20.5q-29 20 -44.5 49t-15.5 60v1044q0 74 -1 128t-3 99q18 43 71.5 53.5t131.5 10.5q10 -35 12 -78t2 -121v-1048zM1247 1409 q8 -10 9 -19.5t1 -21.5l-4 -19.5t-8 -25.5q-12 -29 -22 -39q-27 -14 -50 -6q-10 6 -18 6q-16 4 -35.5 6t-38.5 2q-31 0 -58.5 -8t-50 -31.5t-37 -63.5t-16.5 -102q-2 -31 -2 -58v-62h88q35 0 76 1t60 3q-2 -41 -6.5 -67.5t-10.5 -42t-16 -24t-25 -14.5l2 2q-4 -2 -12 -5 t-12 -5q-29 -4 -65 -4h-81v-185q0 -99 1 -201l2 -198q1 -96 1 -176q0 -10 -3 -25.5t-21 -21.5q-33 -6 -71 -8t-56 -2q-33 0 -66 6q-2 10 -2 25v30v121q0 29 1 60.5t1 64.5v248q0 68 -1 130t-1 132q-86 4 -125 33q4 31 8.5 49t11.5 28.5t17 16.5t27 10q10 4 23.5 6t37.5 9 q0 41 2 77.5t7 69.5v-2q8 104 45.5 171t91 104.5t116 53t117.5 15.5q68 0 109 -13.5t57 -29.5h2zM688 1409q8 -10 9 -19.5t1 -21.5l-4 -19.5t-8 -25.5q-12 -29 -22 -39q-27 -14 -50 -6q-10 6 -18 6q-16 4 -35.5 6t-38.5 2q-31 0 -58.5 -8t-50 -31.5t-37 -63.5t-16.5 -102 q-2 -31 -2 -58v-62h88q35 0 76 1t60 3q-2 -41 -6.5 -67.5t-10.5 -42t-16 -24t-25 -14.5l2 2q-4 -2 -12 -5t-12 -5q-29 -4 -65 -4h-81v-185q0 -99 1 -201l2 -198q1 -96 1 -176q0 -10 -3 -25.5t-21 -21.5q-33 -6 -71 -8t-56 -2q-33 0 -66 6q-2 10 -2 25v30v121q0 29 1 60.5 t1 64.5v248q0 68 -1 130t-1 132q-86 4 -125 33q4 31 8.5 49t11.5 28.5t17 16.5t27 10q10 4 23.5 6t37.5 9q0 41 2 77.5t7 69.5v-2q8 104 45.5 171t91 104.5t116 53t117.5 15.5q68 0 109 -13.5t57 -29.5h2z" />
</font>
</defs>
</svg>
